Resultados 1 al 6 de 6
Like Tree1Likes
  • 1 Post By lagartish

Aterriza como puedas (1980)[Comedia absurda][Bdrip.720p.Dual.AC3.subs]


Descargar Aterriza como puedas (1980)[Comedia absurda][Bdrip.720p.Dual.AC3.subs] Gratis 1 link Full Aterriza como puedas (1980)[Comedia absurda][Bdrip.720p.Dual.AC3.subs] por Mediafire con Crack, Serial, KeyGen Full Torrent

  1. Avatar de lagartish
    lagartish está desconectado *Dios del FORO*
    Fecha de ingreso
    18 abr, 10
    Mensajes
    1,207

    Aterriza como puedas (1980)[Comedia absurda][Bdrip.720p.Dual.AC3.subs]




    TÍTULO ORIGINAL Airplane!
    AÑO 1980
    DURACIÓN 88 min.
    PAÍS
    DIRECTOR Jim Abrahams, David Zucker, Jerry Zucker
    GUIÓN Jim Abrahams, David Zucker, Jerry Zucker
    MÚSICA Elmer Bernstein
    FOTOGRAFÍA Joseph Biroc
    REPARTO Robert Hays, Julie Hagerty, Lloyd Bridges, Leslie Nielsen, Peter Graves, Robert Stack, Kareem Abdul-Jabbar
    PRODUCTORA Paramount Pictures presents a Howard W. Koch Production
    GÉNERO Comedia | Comedia absurda. Parodia. Aviones
    SINOPSIS El vuelo 209 de la Trans American sale de Los Ángeles con destino a Chicago. Entre el pasaje se encuentran una serie de curiosos personajes. Entre ellos, un ex-piloto de combate que, en pleno vuelo, se verá obligado a hacerse con el mando del avión comercial, tras quedar los pilotos indispuestos por una comida en mal estado. (FILMAFFINITY)
    CRÍTICAS ----------------------------------------
    ¿Le ha dejado la novia?¿Acaba de quedarse sin trabajo?¿Observa irrefrenables deseos de suicidarse? Pues alquílese esta película.... y luego ya puede tirarse por la ventana, porque lo peor de esta incontestable obra maestra de la comedia absurda es que ninguna de sus decenas de secuelas e imitaciones se le acerca siquiera. El truco, aparentemente sencillo, consistía en disfrazar constantemente lo obvio de ridículo, en convertir lo sencillo en absurdo. "Airplane" consiguió lo imposible: un gag impagable por minuto. Luego vinieron muchas películas más, pero intentando imitar se lanzaron por el camino de la saturación. No hicieron sino agrandar el mito de esta descomunal fábrica de carcajadas. En dura competición con los films de los Monty Python como el delirio cinematográfico más desternillante del cine moderno, legiones de seguidores estamos de acuerdo en que su humor es simple... simplemente genial. (Pablo Kurt: FILMAFFINITY)
    ----------------------------------------
    "Humor fresco y algunos gags bastante imaginativos llevan al espectador a pasar unos momentos de auténtica diversión (...) Carcajadas fáciles pero efectivas" (Fernando Morales: Diario El País)

    Mediainfo:
    Código:
    Complete name : Aterriza como puedas.Bdrip.720p.Dual.x.lagartish.mkv 
    Format : Matroska 
    File size : 5.64 GiB 
    Duration : 1h 27mn 
    Overall bit rate : 9 198 Kbps 
    Movie name : Aterriza como puedas x lagartish 
    Encoded date : UTC 2011-11-08 23:13:31 
    Writing application : mkvmerge v4.8.0 ('I Got The...') creado el May 23 2011 22:30:05 
    Writing library : libebml v1.2.0 + libmatroska v1.1.0 
    Video
    ID : 1 
    Format : AVC 
    Format/Info : Advanced Video Codec 
    Format profile : High@L4.1 
    Format settings, CABAC : Yes 
    Format settings, ReFrames : 9 frames 
    Codec ID : V_MPEG4/ISO/AVC 
    Duration : 1h 27mn 
    Bit rate : 7 465 Kbps 
    Width : 1 280 pixels 
    Height : 720 pixels 
    Display aspect ratio : 16:9 
    Frame rate : 23.976 fps 
    Color space : YUV 
    Chroma subsampling : 4:2:0 
    Bit depth : 8 bits 
    Scan type : Progressive 
    Bits/(Pixel*Frame) : 0.338 
    Stream size : 4.46 GiB (79%) 
    Encoding settings : cabac=1 / ref=9 / deblock=1:-3:-3 / analyse=0x3:0x113 / me=umh / subme=10 / psy=1 / psy_rd=1.05:0.10 / mixed_ref=1 / me_range=48 / chroma_me=1 / trellis=2 / 8x8dct=1 / cqm=0 / deadzone=21,11 / fast_pskip=0 / chroma_qp_offset=-2 / threads=12 / sliced_threads=0 / nr=0 / decimate=1 / interlaced=0 / constrained_intra=0 / bframes=6 / b_pyramid=2 / b_adapt=2 / b_bias=0 / direct=3 / weightb=1 / open_gop=0 / weightp=2 / keyint=250 / keyint_min=23 / scenecut=40 / intra_refresh=0 / rc_lookahead=60 / rc=2pass / mbtree=1 / bitrate=7465 / ratetol=1.0 / qcomp=0.70 / qpmin=0 / qpmax=69 / qpstep=4 / cplxblur=20.0 / qblur=0.5 / vbv_maxrate=40000 / vbv_bufsize=30000 / nal_hrd=none / ip_ratio=1.40 / aq=2:0.70 
    Language : 
    English 
    Audio #1
    ID : 2 
    Format : AC-3 
    Format/Info : Audio Coding 3 
    Mode extension : CM (complete main) 
    Codec ID : A_AC3 
    Duration : 1h 27mn 
    Bit rate mode : Constant 
    Bit rate : 224 Kbps 
    Channel(s) : 2 channels 
    Channel positions : Front: L R 
    Sampling rate : 48.0 KHz 
    Bit depth : 16 bits 
    Compression mode : Lossy 
    Stream size : 141 MiB (2%) 
    Language : Spanish 
    Audio #2
    ID : 3 
    Format : DTS 
    Format/Info : Digital Theater Systems 
    Codec ID : A_DTS 
    Duration : 1h 27mn 
    Bit rate mode : Constant 
    Bit rate : 1 510 Kbps 
    Channel(s) : 6 channels 
    Channel positions : Front: L C R, Side: L R, LFE 
    Sampling rate : 48.0 KHz 
    Bit depth : 24 bits 
    Compression mode : Lossy 
    Stream size : 947 MiB (16%) 
    Language : English 
    Text #1
    ID : 4 
    Format : UTF-8 
    Codec ID : S_TEXT/UTF8 
    Codec ID/Info : UTF-8 Plain Text 
    Title : Forzados 
    Language : 
    Spanish Text #2
    ID : 5 
    Format : UTF-8 
    Codec ID : S_TEXT/UTF8 
    Codec ID/Info : UTF-8 Plain Text 
    Language : Spanish 
    Text #3
    ID : 6 
    Format : UTF-8 
    Codec ID : S_TEXT/UTF8 
    Codec ID/Info : UTF-8 Plain Text 
    Language : English
    Contenedor: mkv
    Tamaño: 5.64 Gb
    Tasa de Bits total 9198 kbps
    Resolucion: 1280x720
    Audio 1: AC3 224 kbps castellano (2.0)
    Audio 2: dts 1510 kbps ingles
    Links: 12 de 473 Mb y 1 de 34 Mb
    Archivos de recuperacion: 3 rev
    Subs: Español e Ingles y forzados español

    Archivos intercambiables



    Contenido Oculto Este post contiene información oculta, debes contestar el post o hacer click en el botón 'Gracias' para ver el contenido.


    132patrick likes this.



  2. cachorroz está desconectado *Novato reciente*
    Fecha de ingreso
    28 dic, 11
    Mensajes
    19

    Re: Aterriza como puedas (1980)[Comedia absurda][Bdrip.720p.Dual.AC3.subs]

    buena peli gracias...

  3. juanjozambrano está desconectado *Novato reciente*
    Fecha de ingreso
    30 dic, 11
    Mensajes
    9

    Re: Aterriza como puedas (1980)[Comedia absurda][Bdrip.720p.Dual.AC3.subs]

    ...voy a ver como se ve
    de momenyo gracias por el aporte

  4. cristian13 está desconectado *Novato reciente*
    Fecha de ingreso
    19 jul, 08
    Mensajes
    13

    Re: Aterriza como puedas (1980)[Comedia absurda][Bdrip.720p.Dual.AC3.subs]

    gracias por el aporte amigo

  5. zarapitu está desconectado *Novato reciente*
    Fecha de ingreso
    10 may, 09
    Mensajes
    18

    Re: Aterriza como puedas (1980)[Comedia absurda][Bdrip.720p.Dual.AC3.subs]

    muchas gracias

  6. 132patrick está desconectado *Novato reciente*
    Fecha de ingreso
    04 abr, 10
    Mensajes
    16

    Re: Aterriza como puedas (1980)[Comedia absurda][Bdrip.720p.Dual.AC3.subs]

    graciasssssssss

Temas similares

  1. [MU]Toro Salvaje(1980)[Drama,Deporte][Bdrip.m-720p.Dual.AC3.subs]
    Por lagartish en el foro Peliculas en HD-DVD, BluRay, HDTV Gratis
    Respuestas: 10
    Último mensaje: 01/09/2013, 23:55
  2. Aterriza como Puedas [HDrip][Esp/Ing + Sub Esp][Comedia][1980]
    Por manu3d17 en el foro Peliculas en HD-DVD, BluRay, HDTV Gratis
    Respuestas: 3
    Último mensaje: 23/07/2013, 06:56
  3. Como acabar con tu jefe (V.Extend)(2011)[Comedia][Bdrip.m-720p.Dual.AC3.subs]
    Por lagartish en el foro Peliculas en HD-DVD, BluRay, HDTV Gratis
    Respuestas: 4
    Último mensaje: 31/03/2012, 19:20
  4. Como acabar con tu jefe (V.Extend)(2011)[Comedia][Bdrip.720p.Dual.AC3.subs]
    Por lagartish en el foro Peliculas en HD-DVD, BluRay, HDTV Gratis
    Respuestas: 1
    Último mensaje: 28/11/2011, 14:32
  5. Respuestas: 0
    Último mensaje: 13/09/2011, 22:26