Resultados 1 al 3 de 3

Silent Night Zombie Night 2009 DvDRip XviD Subtitulada


Descargar Silent Night Zombie Night 2009 DvDRip XviD Subtitulada Gratis 1 link Full Silent Night Zombie Night 2009 DvDRip XviD Subtitulada por Mediafire con Crack, Serial, KeyGen Full Torrent

  1. elseptimoarte está desconectado Baneado
    Fecha de ingreso
    18 ago, 11
    Mensajes
    1,307

    Silent Night Zombie Night 2009 DvDRip XviD Subtitulada




    TITULO Silent Night, Zombie Night
    AÑO 2009
    DURACIÓN 83 min.
    PAÍS USA
    DIRECTOR Sean Cain
    GUIÓN Sean Cain
    MÚSICA Mario Salvucci
    FOTOGRAFÍA Jim Wright
    REPARTO Jack Forcinito, Andy Hopper, Nadine Stenovitch, Lew Temple
    PRODUCTORA Velvet Hammer Films / ArsonCuff Entertainment
    WEB OFICIAL Solo los usuarios registrados pueden ver los links de descarga. ¡Registrate ahora, ES GRATIS!
    GÉNERO Terror | Zombis

    La historia nos sitúa en la semana previa a la Navidad, cuando un brote vírico convierte a los habitantes de Los Angeles en zombies. Justo cuando estaba a punto romper con su mujer y enemistarse con su compañero, el oficial de policía Frank Talbot se encontrará atrapado con ellos en un apartamento. A medida que la muerte se acerca, no sólo intentarán sobrevivir, sino también aceptar el hecho de los dos hombres aman a la misma mujer.


    Código:
    Video
    
    ID                               : 0
    
    Format                           : MPEG-4 Visual
    
    Format profile                   : Advanced Simple@L4
    
    Format settings, BVOP            : No
    
    Format settings, QPel            : No
    
    Format settings, GMC             : No warppoints
    
    Format settings, Matrix          : Default (H.263)
    
    Codec ID                         : XVID
    
    Codec ID/Hint                    : XviD
    
    Duration                         : 1h 22mn
    
    Bit rate                         : 1 200 Kbps
    
    Width                            : 640 pixels
    
    Height                           : 360 pixels
    
    Display aspect ratio             : 16:9
    
    Frame rate                       : 29.970 fps
    
    Color space                      : YUV
    
    Chroma subsampling               : 4:2:0
    
    Bit depth                        : 8 bits
    
    Scan type                        : Progressive
    
    Compression mode                 : Lossy
    
    Bits/(Pixel*Frame)               : 0.174
    
    Stream size                      : 710 MiB (89%)
    
    Writing library                  : Magic0432
    
    
    
    Audio
    
    ID                               : 1
    
    Format                           : MPEG Audio
    
    Format version                   : Version 1
    
    Format profile                   : Layer 3
    
    Mode                             : Joint stereo
    
    Mode extension                   : MS Stereo
    
    Codec ID                         : 55
    
    Codec ID/Hint                    : MP3
    
    Duration                         : 1h 22mn
    
    Bit rate mode                    : Constant
    
    Bit rate                         : 128 Kbps
    
    Channel(s)                       : 2 channels
    
    Sampling rate                    : 44.1 KHz
    
    Compression mode                 : Lossy
    
    Stream size                      : 75.8 MiB (10%)
    
    Alignment                        : Aligned on interleaves
    
    Interleave, duration             : 26 ms (0.78 video frame)
    
    Writing library                  : LAME3.97







    Contenido Oculto Este post contiene información oculta, debes contestar el post o hacer click en el botón 'Gracias' para ver el contenido.





  2. Avatar de jagj85
    jagj85 está desconectado Moderadores
    Fecha de ingreso
    07 oct, 10
    Ubicación
    Zona Warez-Venezuela
    Mensajes
    15,556

    Re: Silent Night Zombie Night 2009 DvDRip XviD Subtitulada

    Gracias por el aporte.

  3. maxxxz está desconectado *Novato reciente*
    Fecha de ingreso
    11 ene, 10
    Mensajes
    21

    Re: Silent Night Zombie Night 2009 DvDRip XviD Subtitulada

    gracias!!!

Temas similares

  1. Silent Night-Zombie Night 2009 DVDRip
    Por whoroc996 en el foro Moviez Peliculas
    Respuestas: 0
    Último mensaje: 02/11/2011, 16:15
  2. Silent Night-Zombie Night 2009 DVDRip XviD
    Por barabaika en el foro Moviez Peliculas
    Respuestas: 0
    Último mensaje: 02/11/2011, 16:01
  3. Silent Night - Zombie Night 2009 DVDRip TiCTaC
    Por ninthlegion en el foro Moviez Peliculas
    Respuestas: 0
    Último mensaje: 28/10/2011, 01:33