Página 1 de 2 12 ÚltimoÚltimo
Resultados 1 al 30 de 40
Like Tree5Likes

El Brujo y La Serpiente Blanca (2011) (Dvdrip) (Subtitulada) (Accion,Fantasia)


Descargar El Brujo y La Serpiente Blanca (2011) (Dvdrip) (Subtitulada) (Accion,Fantasia) Gratis 1 link Full El Brujo y La Serpiente Blanca (2011) (Dvdrip) (Subtitulada) (Accion,Fantasia) por Mediafire con Crack, Serial, KeyGen Full Torrent

  1. elseptimoarte está desconectado Baneado
    Fecha de ingreso
    18 ago, 11
    Mensajes
    1,307

    El Brujo y La Serpiente Blanca (2011) (Dvdrip) (Subtitulada) (Accion,Fantasia)






    Serpiente blanca (Eva Huang), mientras que bajo la apariencia de una mujer hermosa, se enamora de un herbolario joven llamado Xu Xian (Raymond Lam). Con la ayuda de la serpiente verde (Charlene Choi) es un riesgo para la vida se envía al mundo de los humanos y se casó a Xu Xian. Sin embargo, irónicamente, que va mucho más Fa Hai (Jet Li), un mago de la Shan, templo Zing. Una furiosa batalla está a punto de comenzar....



    Titulo: The Sorcerer and the White Snake
    Otros Titulos:: Bai Chuan Shuo Shé Zhi Fǎ Hǎi / Es el Amor
    Info: Solo los usuarios registrados pueden ver los links de descarga. ¡Registrate ahora, ES GRATIS!
    Fecha de lanzamiento: 2011 (China)
    Género: Acción | Fantasía
    Actores: Jet Li, Huang Shengyi, Raymond Lam, Charlene Choi, Zhang Wen, Wu Jiang, Vivian Hsu, Miriam Yeung, Chapman To, Ley Kar-Ying, Lam Suet, Sonija Kwok
    Calidad: DVDRip

    INFO

    Código:
    General
    Complete name                            : /disco3/grewlise/public_html/rapidleech/files/Descargas-Directas/The.Sorcerer.And.The.White.Snake.2011.DVD.XviD.V.O.Sub.Spanish.Edugre.avi
    Format                                   : AVI
    Format/Info                              : Audio Video Interleave
    File size                                : 695 MiB
    Duration                                 : 1h 42mn
    Overall bit rate                         : 949 Kbps
    Writing application                      : VirtualDubMod 1.5.10.2 (build 2540/release)
    Writing library                          : VirtualDubMod build 2540/release
    
    Video
    ID                                       : 0
    Format                                   : MPEG-4 Visual
    Format profile                           : Advanced Simple@L5
    Format settings, BVOP                    : 2
    Format settings, QPel                    : No
    Format settings, GMC                     : No warppoints
    Format settings, Matrix                  : Default (H.263)
    Muxing mode                              : Packed bitstream
    Codec ID                                 : XVID
    Codec ID/Hint                            : XviD
    Duration                                 : 1h 42mn
    Bit rate                                 : 748 Kbps
    Width                                    : 608 pixels
    Height                                   : 256 pixels
    Display aspect ratio                     : 2.40:1
    Frame rate                               : 25.000 fps
    Color space                              : YUV
    Chroma subsampling                       : 4:2:0
    Bit depth                                : 8 bits
    Scan type                                : Progressive
    Compression mode                         : Lossy
    Bits/(Pixel*Frame)                       : 0.192
    Stream size                              : 547 MiB (79%)
    Writing library                          : XviD 1.1.2 (UTC 2006-11-01)
    
    Audio
    ID                                       : 1
    Format                                   : AC-3
    Format/Info                              : Audio Coding 3
    Mode extension                           : CM (complete main)
    Codec ID                                 : 2000
    Duration                                 : 1h 42mn
    Bit rate mode                            : Constant
    Bit rate                                 : 192 Kbps
    Channel(s)                               : 2 channels
    Channel positions                        : Front: L R
    Sampling rate                            : 48.0 KHz
    Bit depth                                : 16 bits
    Compression mode                         : Lossy
    Stream size                              : 140 MiB (20%)
    Alignment                                : Split accross interleaves
    Interleave, duration                     : 40 ms (1.00 video frame)
    Interleave, preload duration             : 500 ms






    Contenido Oculto Este post contiene información oculta, debes contestar el post o hacer click en el botón 'Gracias' para ver el contenido.



  2. Avatar de jagj85
    jagj85 está desconectado Moderadores
    Fecha de ingreso
    07 oct, 10
    Ubicación
    Zona Warez-Venezuela
    Mensajes
    15,557

    Re: El Brujo y La Serpiente Blanca (2011) (Dvdrip) (Subtitulada) (Accion,Fantasia)

    Gracias por la pelicula.

  3. fogofo está desconectado *Novato Avanzado*
    Fecha de ingreso
    13 feb, 11
    Mensajes
    33

    Re: El Brujo y La Serpiente Blanca (2011) (Dvdrip) (Subtitulada) (Accion,Fantasia)

    gracias y a ver si funca

  4. sudafrica está desconectado *Experto*
    Fecha de ingreso
    19 may, 10
    Mensajes
    257

    Re: El Brujo y La Serpiente Blanca (2011) (Dvdrip) (Subtitulada) (Accion,Fantasia)

    graciasssss

  5. junitopr77 está desconectado *Novato Avanzado*
    Fecha de ingreso
    09 sep, 11
    Mensajes
    33

    Re: El Brujo y La Serpiente Blanca (2011) (Dvdrip) (Subtitulada) (Accion,Fantasia)

    muchas gracias por la peli

  6. martinkamus está desconectado *Novato reciente*
    Fecha de ingreso
    18 feb, 09
    Mensajes
    26

    Re: El Brujo y La Serpiente Blanca (2011) (Dvdrip) (Subtitulada) (Accion,Fantasia)

    [QUOTE=elseptimoarte;14870505][center][img]http://i28.lulzimg.com
    exelente apor6te la est6aba es`perandoooooooooooooooooooooooo

  7. eddye23 está desconectado *Novato reciente*
    Fecha de ingreso
    06 mar, 08
    Mensajes
    24

    Re: El Brujo y La Serpiente Blanca (2011) (Dvdrip) (Subtitulada) (Accion,Fantasia)

    gracias por compartir

  8. renazodiaz está desconectado *Novato reciente*
    Fecha de ingreso
    23 ago, 11
    Mensajes
    1

    Re: El Brujo y La Serpiente Blanca (2011) (Dvdrip) (Subtitulada) (Accion,Fantasia)

    muy bueno el post deberian salir mas post asi como este

  9. emperador relampago está desconectado *Novato reciente*
    Fecha de ingreso
    16 nov, 11
    Mensajes
    2

    Re: El Brujo y La Serpiente Blanca (2011) (Dvdrip) (Subtitulada) (Accion,Fantasia)

    Gracias por la peli, ser te agradece
    Cita Iniciado por elseptimoarte Ver mensaje




    Serpiente blanca (Eva Huang), mientras que bajo la apariencia de una mujer hermosa, se enamora de un herbolario joven llamado Xu Xian (Raymond Lam). Con la ayuda de la serpiente verde (Charlene Choi) es un riesgo para la vida se envía al mundo de los humanos y se casó a Xu Xian. Sin embargo, irónicamente, que va mucho más Fa Hai (Jet Li), un mago de la Shan, templo Zing. Una furiosa batalla está a punto de comenzar....



    Titulo: The Sorcerer and the White Snake
    Otros Titulos:: Bai Chuan Shuo Shé Zhi Fǎ Hǎi / Es el Amor
    Info: Solo los usuarios registrados pueden ver los links de descarga. ¡Registrate ahora, ES GRATIS!
    Fecha de lanzamiento: 2011 (China)
    Género: Acción | Fantasía
    Actores: Jet Li, Huang Shengyi, Raymond Lam, Charlene Choi, Zhang Wen, Wu Jiang, Vivian Hsu, Miriam Yeung, Chapman To, Ley Kar-Ying, Lam Suet, Sonija Kwok
    Calidad: DVDRip

    INFO

    Código:
    General
    Complete name                            : /disco3/grewlise/public_html/rapidleech/files/Descargas-Directas/The.Sorcerer.And.The.White.Snake.2011.DVD.XviD.V.O.Sub.Spanish.Edugre.avi
    Format                                   : AVI
    Format/Info                              : Audio Video Interleave
    File size                                : 695 MiB
    Duration                                 : 1h 42mn
    Overall bit rate                         : 949 Kbps
    Writing application                      : VirtualDubMod 1.5.10.2 (build 2540/release)
    Writing library                          : VirtualDubMod build 2540/release
    
    Video
    ID                                       : 0
    Format                                   : MPEG-4 Visual
    Format profile                           : Advanced Simple@L5
    Format settings, BVOP                    : 2
    Format settings, QPel                    : No
    Format settings, GMC                     : No warppoints
    Format settings, Matrix                  : Default (H.263)
    Muxing mode                              : Packed bitstream
    Codec ID                                 : XVID
    Codec ID/Hint                            : XviD
    Duration                                 : 1h 42mn
    Bit rate                                 : 748 Kbps
    Width                                    : 608 pixels
    Height                                   : 256 pixels
    Display aspect ratio                     : 2.40:1
    Frame rate                               : 25.000 fps
    Color space                              : YUV
    Chroma subsampling                       : 4:2:0
    Bit depth                                : 8 bits
    Scan type                                : Progressive
    Compression mode                         : Lossy
    Bits/(Pixel*Frame)                       : 0.192
    Stream size                              : 547 MiB (79%)
    Writing library                          : XviD 1.1.2 (UTC 2006-11-01)
    
    Audio
    ID                                       : 1
    Format                                   : AC-3
    Format/Info                              : Audio Coding 3
    Mode extension                           : CM (complete main)
    Codec ID                                 : 2000
    Duration                                 : 1h 42mn
    Bit rate mode                            : Constant
    Bit rate                                 : 192 Kbps
    Channel(s)                               : 2 channels
    Channel positions                        : Front: L R
    Sampling rate                            : 48.0 KHz
    Bit depth                                : 16 bits
    Compression mode                         : Lossy
    Stream size                              : 140 MiB (20%)
    Alignment                                : Split accross interleaves
    Interleave, duration                     : 40 ms (1.00 video frame)
    Interleave, preload duration             : 500 ms






    hidden content may not be quoted
    heroba likes this.

  10. emperador relampago está desconectado *Novato reciente*
    Fecha de ingreso
    16 nov, 11
    Mensajes
    2

    Re: El Brujo y La Serpiente Blanca (2011) (Dvdrip) (Subtitulada) (Accion,Fantasia)

    gracias epero que sigas agregando pelis¡¡¡

  11. lolaperola está desconectado *User Avanzado*
    Fecha de ingreso
    19 ene, 08
    Mensajes
    160

    Re: El Brujo y La Serpiente Blanca (2011) (Dvdrip) (Subtitulada) (Accion,Fantasia)

    muchas gracias

  12. aridan25 está desconectado *Experto*
    Fecha de ingreso
    14 jun, 10
    Mensajes
    267

    Re: El Brujo y La Serpiente Blanca (2011) (Dvdrip) (Subtitulada) (Accion,Fantasia)

    gracias por el aporte

  13. asdespadas11 está desconectado *Novato Avanzado*
    Fecha de ingreso
    17 jul, 11
    Mensajes
    43

    Re: El Brujo y La Serpiente Blanca (2011) (Dvdrip) (Subtitulada) (Accion,Fantasia)

    exelente post gracias

  14. supmanrvi está desconectado *User Avanzado*
    Fecha de ingreso
    17 ago, 09
    Mensajes
    152

    Re: El Brujo y La Serpiente Blanca (2011) (Dvdrip) (Subtitulada) (Accion,Fantasia)

    gracias...............................

  15. jaro85 está desconectado *Novato reciente*
    Fecha de ingreso
    20 ene, 10
    Mensajes
    16

    Re: El Brujo y La Serpiente Blanca (2011) (Dvdrip) (Subtitulada) (Accion,Fantasia)

    a ver que tal... parece buena, gracias

  16. macho9253 está desconectado *Novato Avanzado*
    Fecha de ingreso
    15 jun, 11
    Mensajes
    94

    Re: El Brujo y La Serpiente Blanca (2011) (Dvdrip) (Subtitulada) (Accion,Fantasia)


  17. Dr_Peace está desconectado *Novato Avanzado*
    Fecha de ingreso
    30 jul, 11
    Mensajes
    40

    Re: El Brujo y La Serpiente Blanca (2011) (Dvdrip) (Subtitulada) (Accion,Fantasia)

    biennnn¡¡¡¡¡

  18. hugotoso está desconectado *Novato Avanzado*
    Fecha de ingreso
    04 jun, 09
    Mensajes
    36

    Re: El Brujo y La Serpiente Blanca (2011) (Dvdrip) (Subtitulada) (Accion,Fantasia)

    muchas graciassssssssssssssssssssssssssss

  19. tito18fnaa está desconectado *Novato reciente*
    Fecha de ingreso
    18 jul, 11
    Mensajes
    7

    Re: El Brujo y La Serpiente Blanca (2011) (Dvdrip) (Subtitulada) (Accion,Fantasia)

    graciassssssssssssssssss

  20. darionano está desconectado *Novato Avanzado*
    Fecha de ingreso
    12 oct, 09
    Mensajes
    37

    Re: El Brujo y La Serpiente Blanca (2011) (Dvdrip) (Subtitulada) (Accion,Fantasia)

    buena pelicula me dicen,vamos a ver.

  21. PinyoOo está desconectado *Novato reciente*
    Fecha de ingreso
    30 ene, 12
    Mensajes
    1

    Re: El Brujo y La Serpiente Blanca (2011) (Dvdrip) (Subtitulada) (Accion,Fantasia)

    boooooo gracias!

  22. d_alexander_cm está desconectado *Novato reciente*
    Fecha de ingreso
    13 mar, 09
    Mensajes
    12

    Re: El Brujo y La Serpiente Blanca (2011) (Dvdrip) (Subtitulada) (Accion,Fantasia)

    chido postop gracias

  23. d_alexander_cm está desconectado *Novato reciente*
    Fecha de ingreso
    13 mar, 09
    Mensajes
    12

    Re: El Brujo y La Serpiente Blanca (2011) (Dvdrip) (Subtitulada) (Accion,Fantasia)

    dvfdbfdhgfm
    fdh
    h

  24. edvem está desconectado *Novato reciente*
    Fecha de ingreso
    08 jun, 10
    Mensajes
    19

    Re: El Brujo y La Serpiente Blanca (2011) (Dvdrip) (Subtitulada) (Accion,Fantasia)

    funcionan los links ,gracias!

  25. heroba está desconectado *Novato reciente*
    Fecha de ingreso
    19 abr, 12
    Mensajes
    1

    Re: El Brujo y La Serpiente Blanca (2011) (Dvdrip) (Subtitulada) (Accion,Fantasia)

    que buena pelicula se la recomiendo

  26. anderson316 está desconectado *Novato reciente*
    Fecha de ingreso
    06 feb, 12
    Mensajes
    5

    Re: El Brujo y La Serpiente Blanca (2011) (Dvdrip) (Subtitulada) (Accion,Fantasia)

    gracias por el aporte

  27. luishonorio está desconectado *User Pro*
    Fecha de ingreso
    25 abr, 11
    Mensajes
    647

    Re: El Brujo y La Serpiente Blanca (2011) (Dvdrip) (Subtitulada) (Accion,Fantasia)

    gracias por su aporte

  28. usuarioyo está desconectado *Novato Avanzado*
    Fecha de ingreso
    11 jul, 08
    Mensajes
    38

    Re: El Brujo y La Serpiente Blanca (2011) (Dvdrip) (Subtitulada) (Accion,Fantasia)

    ,,,,,,,,,,,,,,,

  29. jamf666 está desconectado *Novato reciente*
    Fecha de ingreso
    27 mar, 10
    Mensajes
    6

    Re: El Brujo y La Serpiente Blanca (2011) (Dvdrip) (Subtitulada) (Accion,Fantasia)

    muchas gracias...

  30. jamf666 está desconectado *Novato reciente*
    Fecha de ingreso
    27 mar, 10
    Mensajes
    6

    Re: El Brujo y La Serpiente Blanca (2011) (Dvdrip) (Subtitulada) (Accion,Fantasia)

    muchas gracias..

Página 1 de 2 12 ÚltimoÚltimo

Temas similares

  1. El Brujo y La Serpiente Blanca (2011)(DvdScr)(Subtitulada)(Accion)
    Por elseptimoarte en el foro Peliculas DVD Screener Gratis
    Respuestas: 7
    Último mensaje: 21/01/2013, 23:55
  2. El Brujo y La Serpiente Blanca (2011) [DvdScr.Subtitulada][UL-WU]
    Por explo1515 en el foro Moviez Peliculas
    Respuestas: 5
    Último mensaje: 21/01/2013, 23:51
  3. El Aprendiz de Brujo [Español][DVDrip AC3][Fantasia][2010][MU,HF,UT,MD,FS,FL,X7]
    Por 19miguel84 en el foro Peliculas DVDRip en Castellano
    Respuestas: 12
    Último mensaje: 16/03/2011, 22:41
  4. El aprendiz de brujo [TSSCreener][Español/españa][Accion/Fantasia][2010][FS]
    Por roux007 en el foro Peliculas DVD Screener Gratis
    Respuestas: 0
    Último mensaje: 10/10/2010, 11:54
  5. El Aprendiz del Brujo [cam][Fantasía/Accion][Latino][2010]
    Por jonteatebux en el foro Moviez Peliculas
    Respuestas: 3
    Último mensaje: 23/07/2010, 23:09

Etiquetas para este tema