Resultados 1 al 9 de 9
Like Tree1Likes
  • 1 Post By elseptimoarte

Wuxia (2011) - [DVDRip][Sub.Español][Artes Marciales]


Descargar Wuxia (2011) - [DVDRip][Sub.Español][Artes Marciales] Gratis 1 link Full Wuxia (2011) - [DVDRip][Sub.Español][Artes Marciales] por Mediafire con Crack, Serial, KeyGen Full Torrent

  1. elseptimoarte está desconectado Baneado
    Fecha de ingreso
    18 ago, 11
    Mensajes
    1,307

    Wuxia (2011) - [DVDRip][Sub.Español][Artes Marciales]










    Bajo la dinastía Qing, Liu Jin-xi, fabricante de papel, lleva una vida apacible en un pueblo remoto con su mujer Ayu y sus dos hijos. Pero la llegada de un detective cambiará sus vidas…




    Código:
    General
    Complete name                            : /disco3/grewlise/public_html/rapidleech/files/Descargas-Directas/Swordsmen.2011.DVDRip.subesp.Edugre.avi
    Format                                   : AVI
    Format/Info                              : Audio Video Interleave
    File size                                : 1.36 GiB
    Duration                                 : 1h 55mn
    Overall bit rate                         : 1 687 Kbps
    Writing application                      : VirtualDubMod 1.5.10.2 (build 2540/release)
    Writing library                          : VirtualDub build 32842/release
    
    Video
    ID                                       : 0
    Format                                   : MPEG-4 Visual
    Format profile                           : Advanced Simple@L5
    Format settings, BVOP                    : 1
    Format settings, QPel                    : No
    Format settings, GMC                     : No warppoints
    Format settings, Matrix                  : Custom
    Muxing mode                              : Packed bitstream
    Codec ID                                 : XVID
    Codec ID/Hint                            : XviD
    Duration                                 : 1h 55mn
    Bit rate                                 : 1 295 Kbps
    Width                                    : 640 pixels
    Height                                   : 272 pixels
    Display aspect ratio                     : 2.35:1
    Frame rate                               : 23.976 fps
    Color space                              : YUV
    Chroma subsampling                       : 4:2:0
    Bit depth                                : 8 bits
    Scan type                                : Progressive
    Compression mode                         : Lossy
    Bits/(Pixel*Frame)                       : 0.310
    Stream size                              : 1.04 GiB (77%)
    Writing library                          : XviD 64
    
    Audio
    ID                                       : 1
    Format                                   : AC-3
    Format/Info                              : Audio Coding 3
    Mode extension                           : CM (complete main)
    Codec ID                                 : 2000
    Duration                                 : 1h 55mn
    Bit rate mode                            : Constant
    Bit rate                                 : 384 Kbps
    Channel(s)                               : 6 channels
    Channel positions                        : Front: L C R, Side: L R, LFE
    Sampling rate                            : 48.0 KHz
    Bit depth                                : 16 bits
    Compression mode                         : Lossy
    Stream size                              : 316 MiB (23%)
    Alignment                                : Split accross interleaves
    Interleave, duration                     : 42 ms (1.00 video frame)
    Interleave, preload duration             : 500 ms






    Contenido Oculto Este post contiene información oculta, debes contestar el post o hacer click en el botón 'Gracias' para ver el contenido.
    jimmynation likes this.



  2. cehurix está desconectado *Novato reciente*
    Fecha de ingreso
    30 ago, 09
    Mensajes
    23

    Re: Wuxia (2011) - [DVDRip][Sub.Español][Artes Marciales]

    gracias pir el aporte

  3. Luzmarina2011 está desconectado *User Avanzado*
    Fecha de ingreso
    27 sep, 11
    Ubicación
    Miami
    Mensajes
    158

    Re: Wuxia (2011) - [DVDRip][Sub.Español][Artes Marciales]

    Cita Iniciado por elseptimoarte Ver mensaje








    Bajo la dinastía Qing, Liu Jin-xi, fabricante de papel, lleva una vida apacible en un pueblo remoto con su mujer Ayu y sus dos hijos. Pero la llegada de un detective cambiará sus vidas…




    Código:
    General
    Complete name                            : /disco3/grewlise/public_html/rapidleech/files/Descargas-Directas/Swordsmen.2011.DVDRip.subesp.Edugre.avi
    Format                                   : AVI
    Format/Info                              : Audio Video Interleave
    File size                                : 1.36 GiB
    Duration                                 : 1h 55mn
    Overall bit rate                         : 1 687 Kbps
    Writing application                      : VirtualDubMod 1.5.10.2 (build 2540/release)
    Writing library                          : VirtualDub build 32842/release
    
    Video
    ID                                       : 0
    Format                                   : MPEG-4 Visual
    Format profile                           : Advanced Simple@L5
    Format settings, BVOP                    : 1
    Format settings, QPel                    : No
    Format settings, GMC                     : No warppoints
    Format settings, Matrix                  : Custom
    Muxing mode                              : Packed bitstream
    Codec ID                                 : XVID
    Codec ID/Hint                            : XviD
    Duration                                 : 1h 55mn
    Bit rate                                 : 1 295 Kbps
    Width                                    : 640 pixels
    Height                                   : 272 pixels
    Display aspect ratio                     : 2.35:1
    Frame rate                               : 23.976 fps
    Color space                              : YUV
    Chroma subsampling                       : 4:2:0
    Bit depth                                : 8 bits
    Scan type                                : Progressive
    Compression mode                         : Lossy
    Bits/(Pixel*Frame)                       : 0.310
    Stream size                              : 1.04 GiB (77%)
    Writing library                          : XviD 64
    
    Audio
    ID                                       : 1
    Format                                   : AC-3
    Format/Info                              : Audio Coding 3
    Mode extension                           : CM (complete main)
    Codec ID                                 : 2000
    Duration                                 : 1h 55mn
    Bit rate mode                            : Constant
    Bit rate                                 : 384 Kbps
    Channel(s)                               : 6 channels
    Channel positions                        : Front: L C R, Side: L R, LFE
    Sampling rate                            : 48.0 KHz
    Bit depth                                : 16 bits
    Compression mode                         : Lossy
    Stream size                              : 316 MiB (23%)
    Alignment                                : Split accross interleaves
    Interleave, duration                     : 42 ms (1.00 video frame)
    Interleave, preload duration             : 500 ms






    Contenido Oculto Este post contiene información oculta, debes contestar el post o hacer click en el botón 'Gracias' para ver el contenido.
    graciasssssss
    Luz

  4. cehurix está desconectado *Novato reciente*
    Fecha de ingreso
    30 ago, 09
    Mensajes
    23

    Re: Wuxia (2011) - [DVDRip][Sub.Español][Artes Marciales]

    Un millon de gracias

  5. heybel está desconectado *Novato Avanzado*
    Fecha de ingreso
    14 nov, 10
    Mensajes
    39

    Re: Wuxia (2011) - [DVDRip][Sub.Español][Artes Marciales]

    gracias.me gusta el actor

  6. rio azul está desconectado *Experto*
    Fecha de ingreso
    18 mar, 10
    Mensajes
    211

    Re: Wuxia (2011) - [DVDRip][Sub.Español][Artes Marciales]

    muchas gracias pór el aporte

  7. eagledan está desconectado *Novato reciente*
    Fecha de ingreso
    12 jul, 12
    Mensajes
    4

    Re: Wuxia (2011) - [DVDRip][Sub.Español][Artes Marciales]

    Gracias por el aporte

  8. jimmynation está desconectado *Novato reciente*
    Fecha de ingreso
    23 abr, 09
    Mensajes
    9

    Re: Wuxia (2011) - [DVDRip][Sub.Español][Artes Marciales]

    gracias

  9. moliver está desconectado *Novato reciente*
    Fecha de ingreso
    03 may, 08
    Mensajes
    22

    Re: Wuxia (2011) - [DVDRip][Sub.Español][Artes Marciales]

    Cita Iniciado por jimmynation Ver mensaje
    gracias
    Gracias, muy buen aporte.

Temas similares

  1. Yip Man 2: Chung si chuen kei (2010) DVDRip Artes Marciales Cantonese+sub-español
    Por yunieskycg en el foro Peliculas DVDRip Subtituladas Gratis
    Respuestas: 6
    Último mensaje: 22/05/2012, 20:26
  2. Ong Bak 3 (2010) DVDRip Con Subtitulos Español Latino|Acción | Artes marciales
    Por majestad23 en el foro Peliculas DVDRip Subtituladas Gratis
    Respuestas: 10
    Último mensaje: 01/02/2012, 20:49
  3. Respuestas: 8
    Último mensaje: 01/12/2011, 22:00
  4. The Lost Bladesman [artes marciales] [DVDrip-Rmvb] [2011] [Sub.Esp] [wu]
    Por bratinii en el foro Peliculas DVDRip Subtituladas Gratis
    Respuestas: 0
    Último mensaje: 24/07/2011, 07:57
  5. Dororo [DVDrip][Español AC/3][Accion,Artes marciales]
    Por felisuco69 en el foro Peliculas DVDRip en Castellano
    Respuestas: 0
    Último mensaje: 02/12/2010, 13:35