Descargar: Veljekset [DvdRIP] [2011] [Sub.] [Drama] [WU-FS-FLS-US]


Descripción satírica tres hermanos y el reencuentro con su padre. La reunión despertó muchos recuerdos amargos del pasado y también las verdades desagradables de su padre...

Titulo: Veljekset
Año: 2011
Genero: Drama
Idioma: Fines con subtitulos en español pegados al video
Formato: AVI
Calidad de imagen: Muy Buena

dijo:
General
Complete name : files/p-vel__Luke.avi
Format : AVI
Format/Info : Audio Video Interleave
File size : 920 MiB
Duration : 1h 25mn
Overall bit rate : 1 499 Kbps
Writing application : MEncoder 1.0rc2-4.2.4
Writing library : MPlayer

Video
ID : 0
Format : MPEG-4 Visual
Format profile : Simple@L1
Format settings, BVOP : No
Format settings, QPel : No
Format settings, GMC : No warppoints
Format settings, Matrix : Default (H.263)
Codec ID : XVID
Codec ID/Hint : XviD
Duration : 1h 25mn
Bit rate : 1 327 Kbps
Width : 592 pixels
Height : 320 pixels
Display aspect ratio : 1.850
Frame rate : 25.000 fps
Color space : YUV
Chroma subsampling : 4:2:0
Bit depth : 8 bits
Scan type : Progressive
Bits/(Pixel*Frame) : 0.280
Stream size : 814 MiB (89%)
Writing library : Lavc51.44.0

Audio
ID : 1
Format : MPEG Audio
Format version : Version 1
Format profile : Layer 3
Codec ID : 55
Codec ID/Hint : MP3
Duration : 1h 25mn
Bit rate mode : Constant
Bit rate : 160 Kbps
Channel(s) : 2 channels
Sampling rate : 44.1 KHz
Stream size : 98.1 MiB (11%)
Alignment : Aligned on interleaves
Interleave, duration : 26 ms (0.65 video frame)
Interleave, preload duration : 522 ms
Writing library : LAME3.98



Links Intercambiables

Descarga Recomendada

Contenido Oculto Este post contiene información oculta, debes contestar el post o hacer click en el botón 'Gracias' para ver el contenido.


o

Descarga Alternativa 2

Contenido Oculto Este post contiene información oculta, debes contestar el post o hacer click en el botón 'Gracias' para ver el contenido.


o

Descarga Alternativa 3

Contenido Oculto Este post contiene información oculta, debes contestar el post o hacer click en el botón 'Gracias' para ver el contenido.


o

Descarga Alternativa 4

Contenido Oculto Este post contiene información oculta, debes contestar el post o hacer click en el botón 'Gracias' para ver el contenido.