Página 1 de 6 123 ... ÚltimoÚltimo
Resultados 1 al 30 de 160
Like Tree2Likes

El Rey Leon 1,2,3 [Dvdrip.Avi.Español Latino]


Descargar El Rey Leon 1,2,3 [Dvdrip.Avi.Español Latino] Gratis 1 link Full El Rey Leon 1,2,3 [Dvdrip.Avi.Español Latino] por Mediafire con Crack, Serial, KeyGen Full Torrent

  1. Avatar de ralf475
    ralf475 está desconectado *Novato Avanzado*
    Fecha de ingreso
    23 oct, 09
    Mensajes
    42

    El Rey Leon 1,2,3 [Dvdrip.Avi.Español Latino]



    TITULO ORIGINAL The Lion King
    AÑO 1994
    PAÍS Estados Unidos
    DIRECTOR Rob Minkoff, Roger Allers
    GUIÓN Irene Mecchi, Jonathan Roberts, Linda Woolverton
    MÚSICA Hans Zimmer (Canciones: Tim Rice, Elton John)
    FOTOGRAFÍA Animation
    REPARTO Animation
    PRODUCTORA Walt Disney Pictures
    Genero : Animación. Infantil
    1994: 2 Oscar: mejor banda sonora, mejor canción


    SINOPSIS: Narra la aventuras en la sabana africana de Simba, un pequeño león, heredero al trono, que se exilia al ser injustamente acusado de la muerte de su padre, pero que hace buenas amistades y regresa para recuperar lo que es suyo.


    Video #0
    Format : MPEG-4 Visual
    Codec ID/Hint : XviD
    Duration : 1h 28mn
    Bit rate : 1 127 Kbps
    Width : 704 pixels
    Height : 416 pixels
    Display aspect ratio : 1.692
    Frame rate : 23.976 fps
    Scan type : Progressive
    Stream size : 716 MiB (89%)

    Audio #1
    Codec ID/Hint : MP3
    Duration : 1h 28mn
    Bit rate mode : Constant
    Bit rate : 128 Kbps
    Channel(s) : 2 channels
    Sampling rate : 48.0 KHz
    Resolution : 16 bits
    Stream size : 81.4 MiB (10%)

    Formato : AVI
    Tamaño : 806 MiB
    Duration : 1h 28mn
    Overall bit rate : 1 267 Kbps
    Idioma : Español Latino
    Calidad : Dvdrip (Ripeado del Dvd original)













    3 Links de 200 MB / Ultimo Link 198 MB


    Freakshare

    Contenido Oculto Este post contiene información oculta, debes contestar el post o hacer click en el botón 'Gracias' para ver el contenido.
    Depositfiles

    Contenido Oculto Este post contiene información oculta, debes contestar el post o hacer click en el botón 'Gracias' para ver el contenido.


    Gotupload
    Contenido Oculto Este post contiene información oculta, debes contestar el post o hacer click en el botón 'Gracias' para ver el contenido.





    Contraseña : ralf475

    Archivos Intercambiables







    Título Original: Lion King II: Simba's pride
    Año: 1998
    Género: Animación
    País: Estados Unidos, Australia
    Duración: 81 minutos
    Dirección: Rob LaDuca / Darrell Rooney
    Guión: Flip Kobler / Jonathan Cuba

    Sinopsis: Kiara, la impetuosa hija primogénita de Simba y heredera de los Dominios del Clan, deseosa de vivir nuevas aventuras decide adentrarse en las Tierras Oscuras, que se sitúan fuera de los límites establecidos para ella. Allí conoce al travieso Kovu, un joven cachorro elegido para seguir las huellas de Scar. Mientras buscan su propio lugar en El Ciclo de la Vida, Kiara y Kovu se dan cuenta de que quizás ellos sean la única esperanza de alcanzar la paz entre los habitantes de las Tierras Oscuras y los del territorio de Simba.



    Video
    Format : MPEG-4 Visual
    Codec ID : DIVX
    Codec ID/Hint : DivX 4
    Duration : 1h 18mn
    Bit rate : 917 Kbps
    Width : 512 pixels
    Height : 384 pixels
    Display aspect ratio : 4/3
    Frame rate : 23.976 fps
    Resolution : 24 bits
    Scan type : Progressive
    Bits/(Pixel*Frame) : 0.195
    Stream size : 516 MiB (74%)

    Audio
    Codec ID/Hint : MP3
    Duration : 1h 18mn
    Bit rate mode : Variable
    Bit rate : 317 Kbps
    Channel(s) : 2 channels
    Sampling rate : 44.1 KHz
    Resolution : 16 bits
    Stream size : 178 MiB (25%)
    Encoding settings : ABR

    Format : AVI
    Tamaño : 700 MiB
    Duration : 1h 18mn
    Overall bit rate : 1 246 Kbps
    Idioma : Español Latino
    Calidad : Dvdrip
    Ripper : ?







    3 Links de 200 MB / Ultimo link de 94 MB

    Gotupload
    Contenido Oculto Este post contiene información oculta, debes contestar el post o hacer click en el botón 'Gracias' para ver el contenido.

    Freakshare
    Contenido Oculto Este post contiene información oculta, debes contestar el post o hacer click en el botón 'Gracias' para ver el contenido.

    Depositfiles
    Contenido Oculto Este post contiene información oculta, debes contestar el post o hacer click en el botón 'Gracias' para ver el contenido.



    Contraseña : ralf475

    Archivos Intercambiables






    El rey león 3 - Hakuna Matata (2004)

    TÍTULO ORIGINAL The Lion King 1½
    AÑO 2004
    PAÍS [Estados Unidos]
    DIRECTOR Bradley Raymond
    GUIÓN Tom Rogers
    MÚSICA Hans Zimmer & Don Harper
    PRODUCTORA Walt Disney Pictures
    GÉNERO Animación. Infantil. Comedia /

    SINOPSIS: La diversión reina en esta nueva película en al que Timón y su simpático amigo Pumba son los grandes héroes de la Sabana. El Rey León 3 nos traslada al pasado, antes de que comenzase la historia de Simba, e incluso mucho más atrás. En esta nueva comedia de aventuras, Timón y Pumba te descubrirán sus orígenes, cuándo se conocieron y cómo ayudaron a Simba a salvar el Seregeti. Su historia incluye algunos de los grandes momentos de El Rey León, que ahora resultarán un poco diferentes desde su punto de vista. Por ejemplo, os sorprenderá conocer la verdad sobre cómo se desarrolló el trascendental momento en el que Simba fue presentado al reino animal.



    Video
    Format : MPEG-4 Visual
    Codec ID : XVID
    Duration : 1h 16mn
    Bit rate : 1 111 Kbps
    Width : 544 pixels
    Height : 304 pixels
    Display aspect ratio : 16/9
    Frame rate : 23.976 fps
    Bits/(Pixel*Frame) : 0.280
    Stream size : 606 MiB (87%)

    Audio
    Codec ID/Hint : MP3
    Duration : 1h 16mn
    Bit rate mode : Constant
    Bit rate : 160 Kbps
    Channel(s) : 2 channels
    Sampling rate : 48.0 KHz
    Resolution : 16 bits
    Stream size : 87.3 MiB (12%)

    Format : AVI
    Tamaño : 699 MiB
    Duration : 1h 16mn
    Overall bit rate : 1 280 Kbps
    Idioma : Español Latino
    Calidad : Dvdrip













    3 Links de 200 MB / Ultimo Link de 168 MB


    Depositfiles

    Contenido Oculto Este post contiene información oculta, debes contestar el post o hacer click en el botón 'Gracias' para ver el contenido.

    Freakshare

    Contenido Oculto Este post contiene información oculta, debes contestar el post o hacer click en el botón 'Gracias' para ver el contenido.


    Gotupload
    Contenido Oculto Este post contiene información oculta, debes contestar el post o hacer click en el botón 'Gracias' para ver el contenido.
    Código:
    
    


    Contraseña : ralf475

    Archivos Intercambiables

    Última edición por ralf475; 10/11/2009 a las 04:29
    stupndo and Levitt like this.






  2. diabloverde está desconectado *Dios del FORO*
    Fecha de ingreso
    10 may, 09
    Mensajes
    1,282

    Re: El Rey Leon 1,2,3 [Dvdrip.Avi.Español Latino]

    muchas gracias

  3. Centox está desconectado *Experto*
    Fecha de ingreso
    26 oct, 08
    Mensajes
    323

    Re: El Rey Leon 1,2,3 [Dvdrip.Avi.Español Latino]

    Graciasssssssssssssssssssssssssssssss

  4. electrics está desconectado *Novato reciente*
    Fecha de ingreso
    25 jul, 09
    Mensajes
    12

    Re: El Rey Leon 1,2,3 [Dvdrip.Avi.Español Latino]

    excelente coleccion y todo en un solo lugar Gracias

  5. RAFAyFABY está desconectado *Novato Avanzado*
    Fecha de ingreso
    31 ago, 08
    Mensajes
    45

    Re: El Rey Leon 1,2,3 [Dvdrip.Avi.Español Latino]

    thank you, y hope to be good

  6. pablobarra01 está desconectado *Novato reciente*
    Fecha de ingreso
    22 nov, 09
    Mensajes
    3

    Re: El Rey Leon 1,2,3 [Dvdrip.Avi.Español Latino]

    graciaas..!!

  7. alxdaz está desconectado *Novato reciente*
    Fecha de ingreso
    22 nov, 09
    Mensajes
    6

    Re: El Rey Leon 1,2,3 [Dvdrip.Avi.Español Latino]

    Cita Iniciado por diabloverde Ver mensaje
    muchas gracias
    gracias por el aporte muy bueno

  8. sensey88 está desconectado *Novato reciente*
    Fecha de ingreso
    15 feb, 09
    Mensajes
    5

    Re: El Rey Leon 1,2,3 [Dvdrip.Avi.Español Latino]

    [gracias

  9. fabrigonzalez está desconectado *Novato reciente*
    Fecha de ingreso
    28 jul, 09
    Mensajes
    21

    Re: El Rey Leon 1,2,3 [Dvdrip.Avi.Español Latino]

    Graciaaasss!!!!

  10. andres11041986 está desconectado *Novato reciente*
    Fecha de ingreso
    23 sep, 08
    Mensajes
    12

    Re: El Rey Leon 1,2,3 [Dvdrip.Avi.Español Latino]

    sañudos desde chile

  11. sofiaponcee está desconectado *Novato reciente*
    Fecha de ingreso
    25 nov, 09
    Mensajes
    1

    Gracias !!!

    muchas gracias !! =)

  12. foxbo está desconectado *Novato reciente*
    Fecha de ingreso
    23 nov, 09
    Mensajes
    25

    Re: El Rey Leon 1,2,3 [Dvdrip.Avi.Español Latino]

    gracias,,,,,,,,,,,,,,,,,,,,,,,,,,,,,

  13. komandox está desconectado *Novato reciente*
    Fecha de ingreso
    02 abr, 09
    Mensajes
    5

    El Rey Leon 1,2,3 [Dvdrip.Avi.Español Latino]

    Saludos Tambien desde Chile

  14. vitorianin está desconectado *Novato reciente*
    Fecha de ingreso
    27 nov, 09
    Mensajes
    14

    Re: El Rey Leon 1,2,3 [Dvdrip.Avi.Español Latino]

    gracias por todo

  15. Naxtyta está desconectado *Novato reciente*
    Fecha de ingreso
    29 nov, 09
    Mensajes
    1

    Re: El Rey Leon 1,2,3 [Dvdrip.Avi.Español Latino]

    Gracias

  16. molcas está desconectado *Experto*
    Fecha de ingreso
    28 jun, 08
    Mensajes
    222

    Re: El Rey Leon 1,2,3 [Dvdrip.Avi.Español Latino]

    grasias te lusites con este aporte

  17. krstno está desconectado *Novato Avanzado*
    Fecha de ingreso
    16 jun, 08
    Mensajes
    62

    Re: El Rey Leon 1,2,3 [Dvdrip.Avi.Español Latino]

    haber q tal!

  18. danivera está desconectado *Novato Avanzado*
    Fecha de ingreso
    08 oct, 08
    Mensajes
    97

    Re: El Rey Leon 1,2,3 [Dvdrip.Avi.Español Latino]

    muchas gracias por las peliculas

  19. Darkpaint001 está desconectado *User Avanzado*
    Fecha de ingreso
    13 jun, 09
    Mensajes
    125

    Re: El Rey Leon 1,2,3 [Dvdrip.Avi.Español Latino]

    gracias por el aporte, todo un clasico que trae recuerdos

  20. analore2007 está desconectado *Novato reciente*
    Fecha de ingreso
    22 dic, 09
    Mensajes
    8

    Re: El Rey Leon 1,2,3 [Dvdrip.Avi.Español Latino]

    gracias .................................................. ...............

  21. gramirez está desconectado *Novato Avanzado*
    Fecha de ingreso
    15 oct, 08
    Mensajes
    96

    Re: El Rey Leon 1,2,3 [Dvdrip.Avi.Español Latino]

    hhhhhhhhhhhhhhhhhhhhhhhhhhhhhhh

  22. Obed-LK está desconectado *Novato reciente*
    Fecha de ingreso
    03 ene, 09
    Mensajes
    8

    Re: El Rey Leon 1,2,3 [Dvdrip.Avi.Español Latino]

    Cita Iniciado por diabloverde Ver mensaje
    muchas gracias

    te al rifas :P

  23. pelao17 está desconectado *Novato reciente*
    Fecha de ingreso
    17 nov, 09
    Mensajes
    4

    Re: El Rey Leon 1,2,3 [Dvdrip.Avi.Español Latino]

    graaaaaaaaan aporte geneal

  24. pelao17 está desconectado *Novato reciente*
    Fecha de ingreso
    17 nov, 09
    Mensajes
    4

    Re: El Rey Leon 1,2,3 [Dvdrip.Avi.Español Latino]

    grandiosooo aporte gracias

  25. reaperito está desconectado *Novato Avanzado*
    Fecha de ingreso
    10 oct, 09
    Mensajes
    32

    Re: El Rey Leon 1,2,3 [Dvdrip.Avi.Español Latino]

    grasiassssssssssssssssssssss

  26. criosv está desconectado *Novato reciente*
    Fecha de ingreso
    19 dic, 09
    Mensajes
    12

    Re: El Rey Leon 1,2,3 [Dvdrip.Avi.Español Latino]

    esta muy bueno este post

  27. raulinho18 está desconectado *Novato Avanzado*
    Fecha de ingreso
    19 oct, 08
    Mensajes
    42

    Re: El Rey Leon 1,2,3 [Dvdrip.Avi.Español Latino]

    vale men gracias!

  28. Arcángel-Tyrael está desconectado *Novato reciente*
    Fecha de ingreso
    04 feb, 10
    Mensajes
    11

    Re: El Rey Leon 1,2,3 [Dvdrip.Avi.Español Latino]

    Gracias esta muy bueno el aporte!!!

  29. beowyn está desconectado *Novato reciente*
    Fecha de ingreso
    19 feb, 10
    Mensajes
    10

    Re: El Rey Leon 1,2,3 [Dvdrip.Avi.Español Latino]

    gracias por el aporte

  30. baaaf está desconectado *Novato reciente*
    Fecha de ingreso
    21 feb, 10
    Mensajes
    2

    Re: El Rey Leon 1,2,3 [Dvdrip.Avi.Español Latino]

    Cita Iniciado por andres11041986 Ver mensaje
    sañudos desde chile
    grax mennnnnnnnnnnnnnnnnnnnnnnnnnnnnnnnnnn

Página 1 de 6 123 ... ÚltimoÚltimo

Temas similares

  1. El Rey León [Dvdrip][Animación][Español Latino][1994]
    Por genio111 en el foro Peliculas DVDRip en Español Latino
    Respuestas: 27
    Último mensaje: 25/03/2013, 23:57
  2. El Rey León [Dvdrip][Audio Latino][Rs] Excelente Calidad!
    Por pipeazul14 en el foro Peliculas DVDRip en Español Latino
    Respuestas: 162
    Último mensaje: 25/03/2013, 23:55
  3. Descarga Leon "El professional" con subt., en español incorporado
    Por Chetoky en el foro Peliculas DVDRip Subtituladas Gratis
    Respuestas: 92
    Último mensaje: 04/10/2012, 17:19
  4. El.Pequeño.Rey.León.AudioLatino.DvDRip-XviD.[RS][MU]
    Por YamjaV en el foro Peliculas DVDRip en Español Latino
    Respuestas: 76
    Último mensaje: 06/08/2012, 18:42