Resultados 1 al 11 de 11

Dolphin Tale [2011][DvDRip][XviD][Audio.Latino.5.1][Drama][FLS]


Descargar Dolphin Tale [2011][DvDRip][XviD][Audio.Latino.5.1][Drama][FLS] Gratis 1 link Full Dolphin Tale [2011][DvDRip][XviD][Audio.Latino.5.1][Drama][FLS] por Mediafire con Crack, Serial, KeyGen Full Torrent

  1. Avatar de MasterRipperDvD
    MasterRipperDvD está desconectado *Experto*
    Fecha de ingreso
    05 dic, 11
    Mensajes
    264

    Dolphin Tale [2011][DvDRip][XviD][Audio.Latino.5.1][Drama][FLS]






    Título original: Dolphin Tale
    Título en español: El Delfin
    Direccion: Charles Martin Smith
    Pais: Estados Unidos
    Año: 2011
    Genero: Drama
    Duracion: 113 Minutos Aproximadamente
    Montaje: Harvey Rosenstock
    Reparto: Harry Connick, Jr
    Guión: Karen Janszen



    Un delfín encontrado en la costa norteamericana atrapado en una trampa para capturar cangrejos pierde su cola, elemento de vital importancia para nadar y sobrevivir en el mar. Un grupo de especialistas lo traslada a un acuario con la intención de implantarle una prótesis que le permita volver a vivir en su hábitat natural. Mientras tanto, entre el delfín y un niño se establece un estrecho vínculo de amistad.



    Código:
    Video
    
    ID                               : 0
    
    Format                           : MPEG-4 Visual
    
    Format profile                   : Advanced Simple@L4
    
    Format settings, BVOP            : No
    
    Format settings, QPel            : No
    
    Format settings, GMC             : No warppoints
    
    Format settings, Matrix          : Default (H.263)
    
    Codec ID                         : XVID
    
    Codec ID/Hint                    : XviD
    
    Duration                         : 1h 52mn
    
    Bit rate                         : 1 199 Kbps
    
    Width                            : 640 pixels
    
    Height                           : 360 pixels
    
    Display aspect ratio             : 16:9
    
    Frame rate                       : 29.970 fps
    
    Color space                      : YUV
    
    Chroma subsampling               : 4:2:0
    
    Bit depth                        : 8 bits
    
    Scan type                        : Progressive
    
    Compression mode                 : Lossy
    
    Bits/(Pixel*Frame)               : 0.174
    
    Stream size                      : 966 MiB (89%)
    
    Writing library                  : Magic0432
    
    
    
    Audio
    
    ID                               : 1
    
    Format                           : MPEG Audio
    
    Format version                   : Version 1
    
    Format profile                   : Layer 3
    
    Mode                             : Joint stereo
    
    Mode extension                   : MS Stereo
    
    Codec ID                         : 55
    
    Codec ID/Hint                    : MP3
    
    Duration                         : 1h 52mn
    
    Bit rate mode                    : Constant
    
    Bit rate                         : 128 Kbps
    
    Channel(s)                       : 2 channels
    
    Sampling rate                    : 44.1 KHz
    
    Compression mode                 : Lossy
    
    Stream size                      : 103 MiB (10%)
    
    Alignment                        : Aligned on interleaves
    
    Interleave, duration             : 26 ms (0.78 video frame)
    
    Writing library                  : LAME3.97











    Contenido Oculto Este post contiene información oculta, debes contestar el post o hacer click en el botón 'Gracias' para ver el contenido.



  2. Avatar de jagj85
    jagj85 está desconectado Moderadores
    Fecha de ingreso
    07 oct, 10
    Ubicación
    Zona Warez-Venezuela
    Mensajes
    15,556

    Re: Dolphin Tale [2011][DvDRip][XviD][Audio.Latino.5.1][Drama][FLS]

    Gracias por la pelicula.
    Publicado en el Home.

  3. elkinecheverri está desconectado *Master*
    Fecha de ingreso
    19 abr, 10
    Mensajes
    983

    Re: Dolphin Tale [2011][DvDRip][XviD][Audio.Latino.5.1][Drama][FLS]

    Graxxxxxxxxxxxxxxxxxxx

  4. cruzhdz33 está desconectado *User Pro*
    Fecha de ingreso
    23 jun, 08
    Mensajes
    679

    Re: Dolphin Tale [2011][DvDRip][XviD][Audio.Latino.5.1][Drama][FLS]

    gracias por la peli

  5. CALEUCHE está desconectado *Experto*
    Fecha de ingreso
    18 mar, 10
    Mensajes
    280

    Re: Dolphin Tale [2011][DvDRip][XviD][Audio.Latino.5.1][Drama][FLS]

    ,muchas gracias.

  6. pakko666 está desconectado *Novato reciente*
    Fecha de ingreso
    08 ago, 09
    Mensajes
    23

    Re: Dolphin Tale [2011][DvDRip][XviD][Audio.Latino.5.1][Drama][FLS]

    gracias saludos

  7. Dolls está desconectado *User Pro*
    Fecha de ingreso
    26 feb, 09
    Mensajes
    441

    Re: Dolphin Tale [2011][DvDRip][XviD][Audio.Latino.5.1][Drama][FLS]

    vamos a ver la movie

  8. betaringa está desconectado *User Pro*
    Fecha de ingreso
    15 jul, 11
    Mensajes
    452

    Re: Dolphin Tale [2011][DvDRip][XviD][Audio.Latino.5.1][Drama][FLS]

    gracias espero poder bajarla

  9. getpana11 está desconectado *User Pro*
    Fecha de ingreso
    10 abr, 10
    Mensajes
    579

    Re: Dolphin Tale [2011][DvDRip][XviD][Audio.Latino.5.1][Drama][FLS]

    gracias por aporte

  10. CROSRAYER está desconectado *Experto*
    Fecha de ingreso
    28 dic, 09
    Mensajes
    276

    Re: Dolphin Tale [2011][DvDRip][XviD][Audio.Latino.5.1][Drama][FLS]

    graciasssssssssssssssssssssssss

  11. Avatar de djdennis2010
    djdennis2010 está desconectado *Master*
    Fecha de ingreso
    17 abr, 10
    Mensajes
    920

    Re: Dolphin Tale [2011][DvDRip][XviD][Audio.Latino.5.1][Drama][FLS]

    ehhhhhhhhhhhhhhhhhhhhhhhhhhh

Temas similares

  1. Dolphin Tale [2011] DVDR Audio/Sub Español Latino-Ingles 5.1
    Por speedupload en el foro Peliculas DVDRip Subtituladas Gratis
    Respuestas: 8
    Último mensaje: 14/09/2014, 15:52
  2. Dolphin Tale 2011 [TS][Audio Latino]
    Por xhyruja en el foro Moviez Peliculas
    Respuestas: 10
    Último mensaje: 12/11/2012, 07:30
  3. Dolphin Tale (2011)[DVDRip][Sub Español][Drama]
    Por frijol72 en el foro Peliculas DVDRip Subtituladas Gratis
    Respuestas: 3
    Último mensaje: 30/05/2012, 02:08
  4. Dolphin Tale 2011 DvDRip XviD Subtitulada - Drama [UP]
    Por elseptimoarte en el foro Peliculas DVDRip Subtituladas Gratis
    Respuestas: 1
    Último mensaje: 29/05/2012, 01:49
  5. Descargar: Dolphin Tale [DvdRIP] [2011] [Sub.] [Drama] [2 Mirros]
    Por game_uploader en el foro Moviez Peliculas
    Respuestas: 3
    Último mensaje: 07/12/2011, 03:22