Resultados 1 al 2 de 2

Christmas Is Here Again [2007][DvDRip][XviD][Latino][Aventura][UL][FLS]


Descargar Christmas Is Here Again [2007][DvDRip][XviD][Latino][Aventura][UL][FLS] Gratis 1 link Full Christmas Is Here Again [2007][DvDRip][XviD][Latino][Aventura][UL][FLS] por Mediafire con Crack, Serial, KeyGen Full Torrent

  1. Avatar de MasterRipperDvD
    MasterRipperDvD está desconectado *Experto*
    Fecha de ingreso
    05 dic, 11
    Mensajes
    264

    Christmas Is Here Again [2007][DvDRip][XviD][Latino][Aventura][UL][FLS]




    FICHA TECNICA

    Título Original: Christmas Is Here Again
    Título Opcional: Otra Vez Es Navidad
    Género: Aventura, Familiar, Música, Musical
    Duración: 74 minutos.
    Año de producción: 2007
    Director: Robert Zappia
    Protagonistas: Norm Macdonald, Brad Garrett, Madison Davenport, Andy Griffith, Edward Asner
    Productor: Jim Praytor
    Guionista: Marco Zappia
    Música: John Van Tongeren
    País: Estados Unidos

    SIPNOSIS

    Cuando el malvado Krad roba a Santa Claus la bolsa de juguetes, aplasta el espíritu navideño y con el tiempo, los niños de todo el mundo terminan olvidando la Navidad. Un grupo de niños decide emprender una aventura polar para detener la destrucción de Krad y rescatar la Navidad de una vez por todas.

    MEDIA INFO

    Código:
    Video
    
    ID                                       : 0
    
    Format                                   : MPEG-4 Visual
    
    Format profile                           : Advanced Simple@L4
    
    Format settings, BVOP                    : No
    
    Format settings, QPel                    : No
    
    Format settings, GMC                     : No warppoints
    
    Format settings, Matrix                  : Default (H.263)
    
    Codec ID                                 : XVID
    
    Codec ID/Hint                            : XviD
    
    Duration                                 : 1h 13mn
    
    Bit rate                                 : 1 008 Kbps
    
    Width                                    : 640 pixels
    
    Height                                   : 360 pixels
    
    Display aspect ratio                     : 16:9
    
    Frame rate                               : 29.970 fps
    
    Color space                              : YUV
    
    Chroma subsampling                       : 4:2:0
    
    Bit depth                                : 8 bits
    
    Scan type                                : Progressive
    
    Compression mode                         : Lossy
    
    Bits/(Pixel*Frame)                       : 0.146
    
    Stream size                              : 532 MiB (88%)
    
    Writing library                          : Magic0432
    
    
    
    Audio
    
    ID                                       : 1
    
    Format                                   : MPEG Audio
    
    Format version                           : Version 1
    
    Format profile                           : Layer 3
    
    Mode                                     : Joint stereo
    
    Codec ID                                 : 55
    
    Codec ID/Hint                            : MP3
    
    Duration                                 : 1h 13mn
    
    Bit rate mode                            : Constant
    
    Bit rate                                 : 128 Kbps
    
    Channel(s)                               : 2 channels
    
    Sampling rate                            : 44.1 KHz
    
    Compression mode                         : Lossy
    
    Stream size                              : 67.6 MiB (11%)
    
    Alignment                                : Aligned on interleaves
    
    Interleave, duration                     : 26 ms (0.78 video frame)

    CAPTURAS








    DESCARGA


    UPLOADED

    Contenido Oculto Este post contiene información oculta, debes contestar el post o hacer click en el botón 'Gracias' para ver el contenido.


    FILESONIC

    Contenido Oculto Este post contiene información oculta, debes contestar el post o hacer click en el botón 'Gracias' para ver el contenido.





  2. Avatar de jagj85
    jagj85 está desconectado Moderadores
    Fecha de ingreso
    07 oct, 10
    Ubicación
    Zona Warez-Venezuela
    Mensajes
    15,557

    Re: Christmas Is Here Again [2007][DvDRip][XviD][Latino][Aventura][UL][FLS]

    Gracias por la pelicula.

Temas similares

  1. Stardust (2007) Audio Latino Dvdrip [Aventura]
    Por GNEIS en el foro Peliculas DVDRip en Español Latino
    Respuestas: 53
    Último mensaje: 08/07/2013, 06:30
  2. Nocturna - Una Aventura Mágica (2007) Dvdrip Latino [Animacion]
    Por fedemesa en el foro Peliculas DVDRip en Español Latino
    Respuestas: 2
    Último mensaje: 28/01/2012, 06:01
  3. El Brazalete Magico [2007] [Aventura] [DVDRip] [Español Latino]
    Por Dmls en el foro Peliculas DVDRip en Español Latino
    Respuestas: 0
    Último mensaje: 18/05/2011, 04:11
  4. El Brazalete Magico (2007) Dvdrip Latino [Aventura]
    Por lombervid en el foro Peliculas DVDRip en Español Latino
    Respuestas: 1
    Último mensaje: 15/05/2011, 06:22