Resultados 1 al 14 de 14
Like Tree1Likes
  • 1 Post By explo1515

Thomas y Sus Amigos: El Dia de los Combustibles Dvdrip Latino [WU-UL]


Descargar Thomas y Sus Amigos: El Dia de los Combustibles Dvdrip Latino [WU-UL] Gratis 1 link Full Thomas y Sus Amigos: El Dia de los Combustibles Dvdrip Latino [WU-UL] por Mediafire con Crack, Serial, KeyGen Full Torrent

  1. explo1515 está desconectado *Dios del FORO*
    Fecha de ingreso
    16 mar, 09
    Mensajes
    3,821

    Thomas y Sus Amigos: El Dia de los Combustibles Dvdrip Latino [WU-UL]


    Thomas y Sus Amigos: El Dia de los Combustibles Dvdrip Latino [WU-UL]





    Thomas Y Sus Amigos :El Dia De Los Combustibles
    Thomas.and.Friends.Day.of.the.Diesels.
    Año:2011
    Pais: Estados unidos
    Rated: Unrated
    Run Time: 57 minutes
    Studio: Lyons / Hit Ent.
    Genero:Animacion.



    El Steamies y el diesel se enfrentan en esta película de aventuras repleta de acción! Cuando se produce un incendio en la isla de Sodor, dos motores nuevos de lucha contra incendios - Flynn y Belle - unirse a Thomas y Percy para salvar el día! Cuando Thomas empieza a pasar todo su tiempo con los más nuevos héroes Sodor, Percy se deja sentir en paz. Diesel lo ve y lo invita a Percy a la Dieselworks, donde Percy se le hace sentir especial por nada menos que el maestro del mal Diesel 10! Pero Percy no sabe que él es parte del plan maestro de diesel 10 para hacerse cargo de la Steamworks Sodor. Percy puede llevar el equipo de vapor para recuperar el Steamworks o que los motores diesel que sea su nuevo hogar? Es a todo vapor para que el fuego entusiasmo en esta nueva película de Thomas & Friends ™!



    Video
    ID : 224 (0xE0)
    Format : MPEG Video
    Format version : Version 1
    Format settings, BVOP : Yes
    Format settings, Matrix : Default
    Duration : 57mn 23s
    Bit rate mode : Constant
    Bit rate : 1 751 Kbps
    Width : 352 pixels
    Height : 240 pixels
    Display aspect ratio : 16:9
    Frame rate : 29.970 fps
    Standard : NTSC
    Resolution : 8 bits
    Scan type : Progressive
    Bits/(Pixel*Frame) : 0.692
    Stream size : 713 MiB (91%)


    Audio
    ID : 192 (0xC0)
    Format : MPEG Audio
    Format version : Version 1
    Format profile : Layer 2
    Duration : 57mn 23s
    Bit rate mode : Constant
    Bit rate : 128 Kbps
    Channel(s) : 2 channels
    Sampling rate : 44.1 KHz
    Stream size : 52.5 MiB (7%)












    LINK INTERCAMBIABLES DE 400MB




    Contenido Oculto Este post contiene información oculta, debes contestar el post o hacer click en el botón 'Gracias' para ver el contenido.


    Contenido Oculto Este post contiene información oculta, debes contestar el post o hacer click en el botón 'Gracias' para ver el contenido.


    Contenido Oculto Este post contiene información oculta, debes contestar el post o hacer click en el botón 'Gracias' para ver el contenido.







    felitohot likes this.



  2. eltony1 está desconectado *Novato reciente*
    Fecha de ingreso
    22 jun, 11
    Mensajes
    14

    Re: Thomas y Sus Amigos: El Dia de los Combustibles Dvdrip Latino [WU-UL]

    muchas gracias!

  3. martzblak está desconectado *Novato reciente*
    Fecha de ingreso
    22 dic, 11
    Mensajes
    1

    gracias por el post

    sañudos..gracias

  4. kranto está desconectado *Novato Avanzado*
    Fecha de ingreso
    04 nov, 11
    Mensajes
    98

    Re: Thomas y Sus Amigos: El Dia de los Combustibles Dvdrip Latino [WU-UL]

    muchas gracias

  5. ROHM está desconectado *Novato reciente*
    Fecha de ingreso
    04 feb, 12
    Mensajes
    3

    Re: Thomas y Sus Amigos: El Dia de los Combustibles Dvdrip Latino [WU-UL]

    Gracias,,!!!!!,,,

  6. Avatar de WhiteFlag
    WhiteFlag está desconectado *Dios del FORO*
    Fecha de ingreso
    16 oct, 11
    Mensajes
    1,569

    Re: Thomas y Sus Amigos: El Dia de los Combustibles Dvdrip Latino [WU-UL]

    a ver si funcionan

  7. xexeu está desconectado *Novato reciente*
    Fecha de ingreso
    19 ago, 11
    Mensajes
    12

    Re: Thomas y Sus Amigos: El Dia de los Combustibles Dvdrip Latino [WU-UL]

    gracias muito bom

  8. azufreyfuego está desconectado *Novato reciente*
    Fecha de ingreso
    26 may, 08
    Mensajes
    17

    Re: Thomas y Sus Amigos: El Dia de los Combustibles Dvdrip Latino [WU-UL]

    Gracias, a mi hijo le va a encantar!!!

  9. jonnyboys está desconectado *Experto*
    Fecha de ingreso
    01 dic, 09
    Mensajes
    204

    Re: Thomas y Sus Amigos: El Dia de los Combustibles Dvdrip Latino [WU-UL]

    gracias por el aporte, by

  10. basaezmarco está desconectado *Novato reciente*
    Fecha de ingreso
    14 feb, 12
    Mensajes
    20

    Re: Thomas y Sus Amigos: El Dia de los Combustibles Dvdrip Latino [WU-UL]

    grasias

  11. master-pro está desconectado *Novato Avanzado*
    Fecha de ingreso
    17 may, 09
    Mensajes
    64

    Re: Thomas y Sus Amigos: El Dia de los Combustibles Dvdrip Latino [WU-UL]

    hay que probarlos despues se agradese

  12. N1MR0D está desconectado *Novato reciente*
    Fecha de ingreso
    03 dic, 09
    Mensajes
    4

    Re: Thomas y Sus Amigos: El Dia de los Combustibles Dvdrip Latino [WU-UL]

    donde esta el link

  13. felitohot está desconectado *User Avanzado*
    Fecha de ingreso
    05 nov, 09
    Mensajes
    105

    Re: Thomas y Sus Amigos: El Dia de los Combustibles Dvdrip Latino [WU-UL]

    funcionaran los link?

  14. ginove está desconectado *User Avanzado*
    Fecha de ingreso
    21 abr, 08
    Mensajes
    166

    Re: Thomas y Sus Amigos: El Dia de los Combustibles Dvdrip Latino [WU-UL]

    gracias!!!!!!!!!!

Temas similares

  1. Respuestas: 17
    Último mensaje: 11/08/2014, 23:49
  2. Thomas y sus amigos - El Cumpleaños Express DVDR [Aud: Ing y Latino][2011]
    Por uribelo en el foro Peliculas en HD-DVD, BluRay, HDTV Gratis
    Respuestas: 12
    Último mensaje: 14/03/2013, 03:11
  3. Thomas y sus amigos DVD-Nº2[DVDRip][Español]
    Por XTUCA en el foro Peliculas DVDRip en Castellano
    Respuestas: 12
    Último mensaje: 06/11/2012, 13:16