Sniper: Reloaded (2011) [DVDRip] [Español Latino]



Sinopsis

Mientras trabaja con las fuerzas especiales de la ONU en la República Democrática del Congo, el sargento de la Marina Brandon Beckett, recibe órdenes para rescatar a un agricultor atrapado en mitad de territorio hostil. Cuando él y sus hombres llegan a la granja, un fracotirador les tiende una emboscada, hiriendo a Beckett y matando a todos los demás. Con la ayuda del antiguo protegido de su padre, el instructor de francotiradores Richard Miller, Beckett deberá aprender a pensar como un francotirador para localizar al asesino antes de que vuelva para acabar el trabajo.
Ficha Tecnica

TÍTULO ORIGINAL: Sniper: Reloaded
AÑO: 2011
DURACIÓN: 91 min.
PAÍS: Suráfrica
DIRECTOR: Claudio Fäh (AKA Claudio Faeh)
GUIÓN: John Fasano
MÚSICA: Mark Sayfritz, Marcus Trumpp
FOTOGRAFÍA: Lorenzo Senatore
REPARTO: Billy Zane, Richard Sammel, Chad Michael Collins, Patrick Lyster, Annabel Wright, Conrad Kemp, Kayla Privett, Ian Van Der Heyden
PRODUCTORA: ApolloMovie Beteiligungs / Film Afrika Worldwide
GÉNERO: Acción
Informacion


DVDRip | XviD | 702 MB | Español Latino | Acción | 2011

Video
ID : 0
Format : MPEG-4 Visual
Format profile : Advanced Simple@L5
Format settings, BVOP : 2
Format settings, QPel : No
Format settings, GMC : No warppoints
Format settings, Matrix : Default (H.263)
Codec ID : XVID
Codec ID/Hint : XviD
Duration : 1h 31mn
Bit rate : 937 Kbps
Width : 640 pixels
Height : 336 pixels
Display aspect ratio : 1.905
Frame rate : 23.976 fps
Color space : YUV
Chroma subsampling : 4:2:0
Bit depth : 8 bits
Scan type : Progressive
Compression mode : Lossy
Bits/(Pixel*Frame) : 0.182
Stream size : 613 MiB (87%)
Writing library : XviD 1.2.1 (UTC 2008-12-04)

Audio
ID : 1
Format : MPEG Audio
Format version : Version 1
Format profile : Layer 3
Codec ID : 55
Codec ID/Hint : MP3
Duration : 1h 31mn
Bit rate mode : Constant
Bit rate : 128 Kbps
Channel(s) : 2 channels
Sampling rate : 48.0 KHz
Compression mode : Lossy
Stream size : 83.7 MiB (12%)
Alignment : Aligned on interleaves
Interleave, duration : 42 ms (1.00 video frame)
Interleave, preload duration : 504 ms
Writing library : LAME3.98r
Encoding settings : -m s -V 4 -q 2 -lowpass 17 -b 128

Capturas