Página 1 de 2 12 ÚltimoÚltimo
Resultados 1 al 30 de 57

Descarga El Aprendíz de Brujo (DVDRip) (Esp-Lat) (2010)


Descargar Descarga El Aprendíz de Brujo (DVDRip) (Esp-Lat) (2010) Gratis 1 link Full Descarga El Aprendíz de Brujo (DVDRip) (Esp-Lat) (2010) por Mediafire con Crack, Serial, KeyGen Full Torrent

  1. Avatar de zakhack
    zakhack está desconectado *Dios del FORO*
    Fecha de ingreso
    10 nov, 07
    Ubicación
    Chile
    Mensajes
    1,538

    Descarga El Aprendíz de Brujo (DVDRip) (Esp-Lat) (2010)


    Descarga El Aprendíz de Brujo (DVDRip) (Esp-Lat) (2010)



    Código:
    General 
    Format                           : AVI 
    Format/Info                      : Audio Video Interleave 
    File size                        : 702 MiB 
    Duration                         : 1h 49mn 
    Overall bit rate                 : 900 Kbps 
    Movie name                       : The.Sorcerers.Apprentice.2010.DVDRip.LATiNO 
    Director                         :  
    Genre                            : Fantastico 
    Recorded date                    : 14-11-2010 
    Writing application              : VirtualDubMod 1.5.10.2 (build 2542/release) 
    Writing library                  : VirtualDubMod build 2542/release 
    Copyright                        :  
    
    Video 
    ID                               : 0 
    Format                           : MPEG-4 Visual 
    Format profile                   : Advanced Simple@L5 
    Format settings, BVOP            : Yes 
    Format settings, QPel            : No 
    Format settings, GMC             : No warppoints 
    Format settings, Matrix          : Default (H.263) 
    Codec ID                         : XVID 
    Codec ID/Hint                    : XviD 
    Duration                         : 1h 49mn 
    Bit rate                         : 765 Kbps 
    Width                            : 640 pixels 
    Height                           : 256 pixels 
    Display aspect ratio             : 2.500 
    Frame rate                       : 23.976 fps 
    Color space                      : YUV 
    Chroma subsampling               : 4:2:0 
    Bit depth                        : 8 bits 
    Scan type                        : Progressive 
    Bits/(Pixel*Frame)               : 0.195 
    Stream size                      : 596 MiB (85%) 
    Writing library                  : XviD 1.2.1 (UTC 2008-12-04) 
    
    Audio 
    ID                               : 1 
    Format                           : MPEG Audio 
    Format version                   : Version 1 
    Format profile                   : Layer 3 
    Codec ID                         : 55 
    Codec ID/Hint                    : MP3 
    Duration                         : 1h 47mn 
    Bit rate mode                    : Constant 
    Bit rate                         : 128 Kbps 
    Channel(s)                       : 2 channels 
    Sampling rate                    : 48.0 KHz 
    Stream size                      : 98.6 MiB (14%) 
    Alignment                        : Aligned on interleaves 
    Interleave, duration             : 42 ms (1.01 video frame) 
    Interleave, preload duration     : 504 ms 
    Writing library                  : LAME3.98r 
    Encoding settings                : -m s -V 4 -q 2 -lowpass 17 -b 128








    DESCARGAR
    Contenido Oculto Este post contiene información oculta, debes contestar el post o hacer click en el botón 'Gracias' para ver el contenido.



  2. alejo580 está desconectado *User Pro*
    Fecha de ingreso
    05 abr, 09
    Mensajes
    614

    Re: Descarga El Aprendíz de Brujo (DVDRip) (Esp-Lat) (2010)

    a probar loa links y la cALIDAD

  3. alter_1 está desconectado *Experto*
    Fecha de ingreso
    01 oct, 09
    Mensajes
    214

    Re: Descarga El Aprendíz de Brujo (DVDRip) (Esp-Lat) (2010)

    muchas gracias

  4. david4141 está desconectado *User Avanzado*
    Fecha de ingreso
    31 jul, 09
    Mensajes
    147

    Re: Descarga El Aprendíz de Brujo (DVDRip) (Esp-Lat) (2010)

    gracias por este aporte...........................

  5. horlacio está desconectado *Novato reciente*
    Fecha de ingreso
    15 nov, 10
    Mensajes
    4

    Re: Descarga El Aprendíz de Brujo (DVDRip) (Esp-Lat) (2010)

    gracias viejo.

  6. muertitoitoo está desconectado *Experto*
    Fecha de ingreso
    19 may, 10
    Mensajes
    368

    Re: Descarga El Aprendíz de Brujo (DVDRip) (Esp-Lat) (2010)

    gracias por el aporte

  7. ghoaul está desconectado *Dios del FORO*
    Fecha de ingreso
    22 mar, 09
    Mensajes
    1,171

    Re: Descarga El Aprendíz de Brujo (DVDRip) (Esp-Lat) (2010)

    gracias por el aporte

  8. goku2goku está desconectado *Dios del FORO*
    Fecha de ingreso
    16 nov, 08
    Mensajes
    1,111

    Re: Descarga El Aprendíz de Brujo (DVDRip) (Esp-Lat) (2010)

    graxiassssssss

  9. jauri está desconectado *Experto*
    Fecha de ingreso
    08 sep, 10
    Mensajes
    215

    Re: Descarga El Aprendíz de Brujo (DVDRip) (Esp-Lat) (2010)

    Graciasssssssssssssssssssssssssssssss

  10. bambinos está desconectado *Experto*
    Fecha de ingreso
    12 may, 08
    Mensajes
    325

    Re: Descarga El Aprendíz de Brujo (DVDRip) (Esp-Lat) (2010)

    graciassssssssssssssssssssssssssssss

  11. OBUR321 está desconectado *User Pro*
    Fecha de ingreso
    27 dic, 08
    Mensajes
    424

    Re: Descarga El Aprendíz de Brujo (DVDRip) (Esp-Lat) (2010)

    Gracias!!!!!!!!!!!!!!!!!!!!!!!!!!!!!!!!!!!!!!!!!!! !!!!!!!!!

  12. diabloverde está desconectado *Dios del FORO*
    Fecha de ingreso
    10 may, 09
    Mensajes
    1,281

    Re: Descarga El Aprendíz de Brujo (DVDRip) (Esp-Lat) (2010)

    muchas gracias

  13. OBUR321 está desconectado *User Pro*
    Fecha de ingreso
    27 dic, 08
    Mensajes
    424

    Re: Descarga El Aprendíz de Brujo (DVDRip) (Esp-Lat) (2010)

    Gracias!!!!!!!!!!!!!!!!!!!!!!!!!!!!!!!!!!!!1

  14. Avatar de yosapokii
    yosapokii está desconectado *User Avanzado*
    Fecha de ingreso
    11 oct, 09
    Mensajes
    165

    Re: Descarga El Aprendíz de Brujo (DVDRip) (Esp-Lat) (2010)

    graxxxxxxxxxxxxxxxxxxxxxxxxxxxxxxxx

  15. jour está desconectado *Experto*
    Fecha de ingreso
    25 feb, 10
    Mensajes
    306

    Re: Descarga El Aprendíz de Brujo (DVDRip) (Esp-Lat) (2010)

    Cita Iniciado por zakhack Ver mensaje
    Descarga El Aprendíz de Brujo (DVDRip) (Esp-Lat) (2010)



    Código:
    General 
    Format                           : AVI 
    Format/Info                      : Audio Video Interleave 
    File size                        : 702 MiB 
    Duration                         : 1h 49mn 
    Overall bit rate                 : 900 Kbps 
    Movie name                       : The.Sorcerers.Apprentice.2010.DVDRip.LATiNO 
    Director                         :  
    Genre                            : Fantastico 
    Recorded date                    : 14-11-2010 
    Writing application              : VirtualDubMod 1.5.10.2 (build 2542/release) 
    Writing library                  : VirtualDubMod build 2542/release 
    Copyright                        :  
    
    Video 
    ID                               : 0 
    Format                           : MPEG-4 Visual 
    Format profile                   : Advanced Simple@L5 
    Format settings, BVOP            : Yes 
    Format settings, QPel            : No 
    Format settings, GMC             : No warppoints 
    Format settings, Matrix          : Default (H.263) 
    Codec ID                         : XVID 
    Codec ID/Hint                    : XviD 
    Duration                         : 1h 49mn 
    Bit rate                         : 765 Kbps 
    Width                            : 640 pixels 
    Height                           : 256 pixels 
    Display aspect ratio             : 2.500 
    Frame rate                       : 23.976 fps 
    Color space                      : YUV 
    Chroma subsampling               : 4:2:0 
    Bit depth                        : 8 bits 
    Scan type                        : Progressive 
    Bits/(Pixel*Frame)               : 0.195 
    Stream size                      : 596 MiB (85%) 
    Writing library                  : XviD 1.2.1 (UTC 2008-12-04) 
    
    Audio 
    ID                               : 1 
    Format                           : MPEG Audio 
    Format version                   : Version 1 
    Format profile                   : Layer 3 
    Codec ID                         : 55 
    Codec ID/Hint                    : MP3 
    Duration                         : 1h 47mn 
    Bit rate mode                    : Constant 
    Bit rate                         : 128 Kbps 
    Channel(s)                       : 2 channels 
    Sampling rate                    : 48.0 KHz 
    Stream size                      : 98.6 MiB (14%) 
    Alignment                        : Aligned on interleaves 
    Interleave, duration             : 42 ms (1.01 video frame) 
    Interleave, preload duration     : 504 ms 
    Writing library                  : LAME3.98r 
    Encoding settings                : -m s -V 4 -q 2 -lowpass 17 -b 128








    DESCARGAR
    hidden content may not be quoted
    gracias por el aporte

  16. Dolls está desconectado *User Pro*
    Fecha de ingreso
    26 feb, 09
    Mensajes
    440

    Re: Descarga El Aprendíz de Brujo (DVDRip) (Esp-Lat) (2010)

    vamos a ver de que server son los links

  17. Avatar de zeus89
    zeus89 está desconectado *Dios del FORO*
    Fecha de ingreso
    30 ene, 10
    Mensajes
    1,822

    Re: Descarga El Aprendíz de Brujo (DVDRip) (Esp-Lat) (2010)

    Cita Iniciado por zakhack Ver mensaje
    Descarga El Aprendíz de Brujo (DVDRip) (Esp-Lat) (2010)



    Código:
    General 
    Format                           : AVI 
    Format/Info                      : Audio Video Interleave 
    File size                        : 702 MiB 
    Duration                         : 1h 49mn 
    Overall bit rate                 : 900 Kbps 
    Movie name                       : The.Sorcerers.Apprentice.2010.DVDRip.LATiNO 
    Director                         :  
    Genre                            : Fantastico 
    Recorded date                    : 14-11-2010 
    Writing application              : VirtualDubMod 1.5.10.2 (build 2542/release) 
    Writing library                  : VirtualDubMod build 2542/release 
    Copyright                        :  
    
    Video 
    ID                               : 0 
    Format                           : MPEG-4 Visual 
    Format profile                   : Advanced Simple@L5 
    Format settings, BVOP            : Yes 
    Format settings, QPel            : No 
    Format settings, GMC             : No warppoints 
    Format settings, Matrix          : Default (H.263) 
    Codec ID                         : XVID 
    Codec ID/Hint                    : XviD 
    Duration                         : 1h 49mn 
    Bit rate                         : 765 Kbps 
    Width                            : 640 pixels 
    Height                           : 256 pixels 
    Display aspect ratio             : 2.500 
    Frame rate                       : 23.976 fps 
    Color space                      : YUV 
    Chroma subsampling               : 4:2:0 
    Bit depth                        : 8 bits 
    Scan type                        : Progressive 
    Bits/(Pixel*Frame)               : 0.195 
    Stream size                      : 596 MiB (85%) 
    Writing library                  : XviD 1.2.1 (UTC 2008-12-04) 
    
    Audio 
    ID                               : 1 
    Format                           : MPEG Audio 
    Format version                   : Version 1 
    Format profile                   : Layer 3 
    Codec ID                         : 55 
    Codec ID/Hint                    : MP3 
    Duration                         : 1h 47mn 
    Bit rate mode                    : Constant 
    Bit rate                         : 128 Kbps 
    Channel(s)                       : 2 channels 
    Sampling rate                    : 48.0 KHz 
    Stream size                      : 98.6 MiB (14%) 
    Alignment                        : Aligned on interleaves 
    Interleave, duration             : 42 ms (1.01 video frame) 
    Interleave, preload duration     : 504 ms 
    Writing library                  : LAME3.98r 
    Encoding settings                : -m s -V 4 -q 2 -lowpass 17 -b 128








    DESCARGAR
    Contenido Oculto Este post contiene información oculta, debes contestar el post o hacer click en el botón 'Gracias' para ver el contenido.
    graciassssssssssssssssssssssssssssssssssssssssssss sssssssss

  18. PYN2001 está desconectado *User Avanzado*
    Fecha de ingreso
    10 feb, 09
    Mensajes
    188

    Re: Descarga El Aprendíz de Brujo (DVDRip) (Esp-Lat) (2010)

    racias por todo

  19. dimittry está desconectado *Experto*
    Fecha de ingreso
    21 ene, 10
    Mensajes
    337

    Re: Descarga El Aprendíz de Brujo (DVDRip) (Esp-Lat) (2010)

    Gracias la esperaba hace tanto...

  20. Avatar de alfredo0
    alfredo0 está desconectado *User Avanzado*
    Fecha de ingreso
    02 sep, 09
    Mensajes
    159

    Re: Descarga El Aprendíz de Brujo (DVDRip) (Esp-Lat) (2010)

    gracias carnal esta pelio esta de lujo

  21. pirates27 está desconectado *Experto*
    Fecha de ingreso
    03 sep, 08
    Mensajes
    315

    Re: Descarga El Aprendíz de Brujo (DVDRip) (Esp-Lat) (2010)

    gracias x el aporte

  22. elgransodoku está desconectado *Experto*
    Fecha de ingreso
    07 abr, 08
    Mensajes
    365

    Re: Descarga El Aprendíz de Brujo (DVDRip) (Esp-Lat) (2010)

    gracias po el aporte
    compa

  23. Lalo785 está desconectado *Experto*
    Fecha de ingreso
    01 jun, 09
    Mensajes
    264

    Re: Descarga El Aprendíz de Brujo (DVDRip) (Esp-Lat) (2010)

    Cita Iniciado por zakhack Ver mensaje
    Descarga El Aprendíz de Brujo (DVDRip) (Esp-Lat) (2010)



    Código:
    General 
    Format                           : AVI 
    Format/Info                      : Audio Video Interleave 
    File size                        : 702 MiB 
    Duration                         : 1h 49mn 
    Overall bit rate                 : 900 Kbps 
    Movie name                       : The.Sorcerers.Apprentice.2010.DVDRip.LATiNO 
    Director                         :  
    Genre                            : Fantastico 
    Recorded date                    : 14-11-2010 
    Writing application              : VirtualDubMod 1.5.10.2 (build 2542/release) 
    Writing library                  : VirtualDubMod build 2542/release 
    Copyright                        :  
    
    Video 
    ID                               : 0 
    Format                           : MPEG-4 Visual 
    Format profile                   : Advanced Simple@L5 
    Format settings, BVOP            : Yes 
    Format settings, QPel            : No 
    Format settings, GMC             : No warppoints 
    Format settings, Matrix          : Default (H.263) 
    Codec ID                         : XVID 
    Codec ID/Hint                    : XviD 
    Duration                         : 1h 49mn 
    Bit rate                         : 765 Kbps 
    Width                            : 640 pixels 
    Height                           : 256 pixels 
    Display aspect ratio             : 2.500 
    Frame rate                       : 23.976 fps 
    Color space                      : YUV 
    Chroma subsampling               : 4:2:0 
    Bit depth                        : 8 bits 
    Scan type                        : Progressive 
    Bits/(Pixel*Frame)               : 0.195 
    Stream size                      : 596 MiB (85%) 
    Writing library                  : XviD 1.2.1 (UTC 2008-12-04) 
    
    Audio 
    ID                               : 1 
    Format                           : MPEG Audio 
    Format version                   : Version 1 
    Format profile                   : Layer 3 
    Codec ID                         : 55 
    Codec ID/Hint                    : MP3 
    Duration                         : 1h 47mn 
    Bit rate mode                    : Constant 
    Bit rate                         : 128 Kbps 
    Channel(s)                       : 2 channels 
    Sampling rate                    : 48.0 KHz 
    Stream size                      : 98.6 MiB (14%) 
    Alignment                        : Aligned on interleaves 
    Interleave, duration             : 42 ms (1.01 video frame) 
    Interleave, preload duration     : 504 ms 
    Writing library                  : LAME3.98r 
    Encoding settings                : -m s -V 4 -q 2 -lowpass 17 -b 128








    DESCARGAR
    hidden content may not be quoted
    graciasssssssssssssssssssssssssssssssssssssssssss

  24. Aleshman está desconectado *Experto*
    Fecha de ingreso
    19 dic, 09
    Mensajes
    349

    Re: Descarga El Aprendíz de Brujo (DVDRip) (Esp-Lat) (2010)

    el aprrendeiz del brujo

  25. sorenatz está desconectado *Dios del FORO*
    Fecha de ingreso
    05 jul, 08
    Mensajes
    1,144

    Re: Descarga El Aprendíz de Brujo (DVDRip) (Esp-Lat) (2010)

    chido gracias

  26. vejetecaliente está desconectado *User Pro*
    Fecha de ingreso
    25 ago, 10
    Mensajes
    547

    Re: Descarga El Aprendíz de Brujo (DVDRip) (Esp-Lat) (2010)

    gracias veamos

  27. miguel bolanos está desconectado *User Pro*
    Fecha de ingreso
    17 nov, 08
    Mensajes
    619

    Re: Descarga El Aprendíz de Brujo (DVDRip) (Esp-Lat) (2010)

    Cita Iniciado por zakhack Ver mensaje
    Descarga El Aprendíz de Brujo (DVDRip) (Esp-Lat) (2010)



    Código:
    General 
    Format                           : AVI 
    Format/Info                      : Audio Video Interleave 
    File size                        : 702 MiB 
    Duration                         : 1h 49mn 
    Overall bit rate                 : 900 Kbps 
    Movie name                       : The.Sorcerers.Apprentice.2010.DVDRip.LATiNO 
    Director                         :  
    Genre                            : Fantastico 
    Recorded date                    : 14-11-2010 
    Writing application              : VirtualDubMod 1.5.10.2 (build 2542/release) 
    Writing library                  : VirtualDubMod build 2542/release 
    Copyright                        :  
    
    Video 
    ID                               : 0 
    Format                           : MPEG-4 Visual 
    Format profile                   : Advanced Simple@L5 
    Format settings, BVOP            : Yes 
    Format settings, QPel            : No 
    Format settings, GMC             : No warppoints 
    Format settings, Matrix          : Default (H.263) 
    Codec ID                         : XVID 
    Codec ID/Hint                    : XviD 
    Duration                         : 1h 49mn 
    Bit rate                         : 765 Kbps 
    Width                            : 640 pixels 
    Height                           : 256 pixels 
    Display aspect ratio             : 2.500 
    Frame rate                       : 23.976 fps 
    Color space                      : YUV 
    Chroma subsampling               : 4:2:0 
    Bit depth                        : 8 bits 
    Scan type                        : Progressive 
    Bits/(Pixel*Frame)               : 0.195 
    Stream size                      : 596 MiB (85%) 
    Writing library                  : XviD 1.2.1 (UTC 2008-12-04) 
    
    Audio 
    ID                               : 1 
    Format                           : MPEG Audio 
    Format version                   : Version 1 
    Format profile                   : Layer 3 
    Codec ID                         : 55 
    Codec ID/Hint                    : MP3 
    Duration                         : 1h 47mn 
    Bit rate mode                    : Constant 
    Bit rate                         : 128 Kbps 
    Channel(s)                       : 2 channels 
    Sampling rate                    : 48.0 KHz 
    Stream size                      : 98.6 MiB (14%) 
    Alignment                        : Aligned on interleaves 
    Interleave, duration             : 42 ms (1.01 video frame) 
    Interleave, preload duration     : 504 ms 
    Writing library                  : LAME3.98r 
    Encoding settings                : -m s -V 4 -q 2 -lowpass 17 -b 128








    DESCARGAR
    Contenido Oculto Este post contiene información oculta, debes contestar el post o hacer click en el botón 'Gracias' para ver el contenido.
    gracias por el aporte !

  28. Avatar de lestersaenz
    lestersaenz está desconectado *Experto*
    Fecha de ingreso
    07 jun, 09
    Mensajes
    211

    Re: Descarga El Aprendíz de Brujo (DVDRip) (Esp-Lat) (2010)

    gracias men

  29. donomarrg está desconectado *Novato Avanzado*
    Fecha de ingreso
    15 jun, 10
    Mensajes
    82

    Re: Descarga El Aprendíz de Brujo (DVDRip) (Esp-Lat) (2010)

    gracias por el aporte

  30. Avatar de chochus01
    chochus01 está desconectado *Experto*
    Fecha de ingreso
    04 sep, 10
    Mensajes
    267

    Re: Descarga El Aprendíz de Brujo (DVDRip) (Esp-Lat) (2010)

    graciassssvamos probando

Página 1 de 2 12 ÚltimoÚltimo

Temas similares

  1. El Aprendiz de Brujo (2010) [DVDRip][Sub Esp][1 link]
    Por djmandy507 en el foro Peliculas DVDRip Subtituladas Gratis
    Respuestas: 57
    Último mensaje: 24/07/2012, 21:54
  2. Respuestas: 101
    Último mensaje: 05/02/2012, 21:55
  3. El aprendiz de brujo [2010][DVDRip Latino][1 Link]
    Por Zozan en el foro Moviez Peliculas
    Respuestas: 6
    Último mensaje: 24/06/2011, 04:15
  4. El aprendiz de brujo (2010)[DVDRip][VO. Subtitulada]
    Por makubex_tnt en el foro Moviez Peliculas
    Respuestas: 2
    Último mensaje: 28/04/2011, 19:04
  5. El Aprendiz De Brujo (2010) [DvdRip][Fantástico][Latino]
    Por manelone en el foro Peliculas DVDRip en Espańol Latino
    Respuestas: 1
    Último mensaje: 16/11/2010, 23:33