Resultados 1 al 18 de 18
Like Tree2Likes
  • 1 Post By camix2009
  • 1 Post By beowulfpremium

El Lobo de Wall Street (2013) | DVDRip | Español Latino | 1.21 GB | 1 Link |


Descargar El Lobo de Wall Street (2013) | DVDRip | Español Latino | 1.21 GB | 1 Link | Gratis 1 link Full El Lobo de Wall Street (2013) | DVDRip | Español Latino | 1.21 GB | 1 Link | por Mediafire con Crack, Serial, KeyGen Full Torrent

  1. Avatar de camix2009
    camix2009 está desconectado Uploader
    Fecha de ingreso
    27 abr, 10
    Ubicación
    Colombia
    Mensajes
    1,454

    El Lobo de Wall Street (2013) | DVDRip | Español Latino | 1.21 GB | 1 Link |


    El Lobo de Wall Street (2013) | DVDRip | Español Latino | 1.21 GB | 1 Link |




    TÍTULO ORIGINAL: The Wolf of Wall Street
    OTROS TÍTULOS: El Lobo de Wall Street
    AÑO: 2013
    PAÍS: Estados Unidos
    DURACIÓN: 179 min.
    DIRECTOR: Martin Scorsese
    REPARTO: Leonardo DiCaprio, Jonah Hill, Margot Robbie, Matthew McConaughey, Rob Reiner, Jean Dujardin, Jon Bernthal, Kyle Chandler, Jon Favreau, Ethan Suplee, Katarina Cas, Cristin Milioti, Joanna Lumley, Spike Jonze, Chris Kerson, Shea Whigham, Marcos Antonio Gonzalez, Emily Tremaine, Ashley Blankenship, Madison McKinley
    GUIÓN: Terence Winter (Libro: Jordan Belfort)
    MÚSICA: Howard Shore
    FOTOGRAFÍA: Rodrigo Prieto
    PRODUCTORA: P4r4m0unt P1ctur3s / Red Gr4n1te Pictures / 4ppi4n Way
    GÉNERO: Comedia. Drama. Comedia negra. Biográfico. Bolsa & Negocios. Años 80. Drogas
    PREMIOS
    2013: Premios Oscar: 5 nominaciones, incluyendo mejor película y director
    2013: Globos de Oro: Mejor actor de comedia (Dicaprio). Nomin. a mejor película
    2013: Premios BAFTA: 4 nominaciones, incluyendo Mejor director
    2013: Critics Choice: Mejor actor de comedia (Dicaprio). 6 nominaciones
    2013: National Board of Review (NBR): Top 10 y mejor guión adaptado
    2013: American Film Institute: Top 10 – Mejores películas del año
    2013: Satellite Awards: 5 nominaciones, incluyendo mejor película y director
    2013: Sindicato de Guionistas (WGA): Nominada a Mejor guión adaptado
    FECHA DE ESTRENO USA: 17 de diciembre de 2013
    FECHA DE ESTRENO ARGENTINA: 2 de enero de 2014
    FECHA DE ESTRENO MÉXICO: 10 de enero de 2014
    FECHA DE ESTRENO ESPAÑA: 17 de enero de 2014



    Película basada en hechos reales del corredor de bolsa neoyorquino Jordan Belfort (Leonardo DiCaprio). A mediados de los años ochenta, Belfort era un joven honrado que perseguía el sueño americano, pero pronto en la agencia de valores aprendió que lo más importante no era hacer ganar a sus clientes, sino ser ambicioso y ganar una buena comisión. Su enorme éxito y fortuna cuando tenía poco más de veinte años como fundador de una agencia bursátil le valió el mote de “El lobo de Wall Street”. Dinero. Poder. Mujeres. Drogas. Las tentaciones abundaban y el temor a la ley era irrelevante. Jordan y su manada de lobos consideraban que la discreción era una cualidad anticuada; nunca se conformaban con lo que tenían.


    Tipo y formato:AVI
    Calidad:DVDRip
    Tamaño:1.21 GB

    Audio:Español Latino
    Contraseña:camix
    Uploader:Camix2012
    Servidor:RAPITGATOR, Uploaded, FREAKSHARE, uploadable
    Código:
    General
    Complete name                            : The.Wolf.of.Wall.Street.2013.BDRip.LATiNO.XviD.avi
    Format                                   : AVI
    Format/Info                              : Audio Video Interleave
    File size                                : 1.21 GiB
    Duration                                 : 2h 59mn
    Overall bit rate                         : 964 Kbps
    
    Video
    ID                                       : 0
    Format                                   : MPEG-4 Visual
    Format profile                           : Advanced Simple@L5
    Format settings, BVOP                    : 2
    Format settings, QPel                    : No
    Format settings, GMC                     : No warppoints
    Format settings, Matrix                  : Default (H.263)
    Codec ID                                 : XVID
    Codec ID/Hint                            : XviD
    Duration                                 : 2h 59mn
    Bit rate                                 : 830 Kbps
    Width                                    : 640 pixels
    Height                                   : 256 pixels
    Display aspect ratio                     : 2.500
    Frame rate                               : 23.976 fps
    Color space                              : YUV
    Chroma subsampling                       : 4:2:0
    Bit depth                                : 8 bits
    Scan type                                : Progressive
    Compression mode                         : Lossy
    Bits/(Pixel*Frame)                       : 0.211
    Stream size                              : 1.04 GiB (86%)
    Writing library                          : XviD 1.2.1 (UTC 2008-12-04)
    
    Audio
    ID                                       : 1
    Format                                   : MPEG Audio
    Format version                           : Version 1
    Format profile                           : Layer 3
    Mode                                     : Joint stereo
    Mode extension                           : MS Stereo
    Codec ID                                 : 55
    Codec ID/Hint                            : MP3
    Duration                                 : 2h 59mn
    Bit rate mode                            : Constant
    Bit rate                                 : 128 Kbps
    Channel(s)                               : 2 channels
    Sampling rate                            : 48.0 KHz
    Compression mode                         : Lossy
    Stream size                              : 165 MiB (13%)
    Alignment                                : Aligned on interleaves
    Interleave, duration                     : 167 ms (4.00 video frames)
    Interleave, preload duration             : 216 ms
    Title                                    : The.Wolf.of.Wall.Street.2013.BD.LATiNO 128Kbps
    Writing library                          : LAME3.99r
    Encoding settings                        : -m j -V 4 -q 2 -lowpass 17 -b 128
    Language                                 : Español Latino
















    Links
    Contenido Oculto Este post contiene información oculta, debes contestar el post o hacer click en el botón 'Gracias' para ver el contenido.

    Contraseña:camix

    chepor likes this.



  2. tanjawi007 está desconectado *User Avanzado*
    Fecha de ingreso
    12 may, 13
    Mensajes
    120

    Re: El Lobo de Wall Street (2013) | DVDRip | Español Latino | 1.21 GB | 1 Link |

    graciassssssssssssssss

  3. Jarson_pro está desconectado *Experto*
    Fecha de ingreso
    14 ene, 08
    Mensajes
    290

    Re: El Lobo de Wall Street (2013) | DVDRip | Español Latino | 1.21 GB | 1 Link |

    muchas gracias chiquillo
    Jarson Burgos

  4. bagotech está desconectado *Novato Avanzado*
    Fecha de ingreso
    20 sep, 10
    Mensajes
    91

    Re: El Lobo de Wall Street (2013) | DVDRip | Español Latino | 1.21 GB | 1 Link |

    que bien muchas gracias por el aporte

  5. jobsuarez está desconectado *User Pro*
    Fecha de ingreso
    11 feb, 09
    Mensajes
    414

    Re: El Lobo de Wall Street (2013) | DVDRip | Español Latino | 1.21 GB | 1 Link |

    OHHHH que gran aporte muchas gracias

    Cita Iniciado por camix2009 Ver mensaje
    El Lobo de Wall Street (2013) | DVDRip | Español Latino | 1.21 GB | 1 Link |




    TÍTULO ORIGINAL: The Wolf of Wall Street
    OTROS TÍTULOS: El Lobo de Wall Street
    AÑO: 2013
    PAÍS: Estados Unidos
    DURACIÓN: 179 min.
    DIRECTOR: Martin Scorsese
    REPARTO: Leonardo DiCaprio, Jonah Hill, Margot Robbie, Matthew McConaughey, Rob Reiner, Jean Dujardin, Jon Bernthal, Kyle Chandler, Jon Favreau, Ethan Suplee, Katarina Cas, Cristin Milioti, Joanna Lumley, Spike Jonze, Chris Kerson, Shea Whigham, Marcos Antonio Gonzalez, Emily Tremaine, Ashley Blankenship, Madison McKinley
    GUIÓN: Terence Winter (Libro: Jordan Belfort)
    MÚSICA: Howard Shore
    FOTOGRAFÍA: Rodrigo Prieto
    PRODUCTORA: P4r4m0unt P1ctur3s / Red Gr4n1te Pictures / 4ppi4n Way
    GÉNERO: Comedia. Drama. Comedia negra. Biográfico. Bolsa & Negocios. Años 80. Drogas
    PREMIOS
    2013: Premios Oscar: 5 nominaciones, incluyendo mejor película y director
    2013: Globos de Oro: Mejor actor de comedia (Dicaprio). Nomin. a mejor película
    2013: Premios BAFTA: 4 nominaciones, incluyendo Mejor director
    2013: Critics Choice: Mejor actor de comedia (Dicaprio). 6 nominaciones
    2013: National Board of Review (NBR): Top 10 y mejor guión adaptado
    2013: American Film Institute: Top 10 – Mejores películas del año
    2013: Satellite Awards: 5 nominaciones, incluyendo mejor película y director
    2013: Sindicato de Guionistas (WGA): Nominada a Mejor guión adaptado
    FECHA DE ESTRENO USA: 17 de diciembre de 2013
    FECHA DE ESTRENO ARGENTINA: 2 de enero de 2014
    FECHA DE ESTRENO MÉXICO: 10 de enero de 2014
    FECHA DE ESTRENO ESPAÑA: 17 de enero de 2014



    Película basada en hechos reales del corredor de bolsa neoyorquino Jordan Belfort (Leonardo DiCaprio). A mediados de los años ochenta, Belfort era un joven honrado que perseguía el sueño americano, pero pronto en la agencia de valores aprendió que lo más importante no era hacer ganar a sus clientes, sino ser ambicioso y ganar una buena comisión. Su enorme éxito y fortuna cuando tenía poco más de veinte años como fundador de una agencia bursátil le valió el mote de “El lobo de Wall Street”. Dinero. Poder. Mujeres. Drogas. Las tentaciones abundaban y el temor a la ley era irrelevante. Jordan y su manada de lobos consideraban que la discreción era una cualidad anticuada; nunca se conformaban con lo que tenían.


    Tipo y formato:AVI
    Calidad:DVDRip
    Tamaño:1.21 GB

    Audio:Español Latino
    Contraseña:camix
    Uploader:Camix2012
    Servidor:RAPITGATOR, Uploaded, FREAKSHARE, uploadable
    Código:
    General
    Complete name                            : The.Wolf.of.Wall.Street.2013.BDRip.LATiNO.XviD.avi
    Format                                   : AVI
    Format/Info                              : Audio Video Interleave
    File size                                : 1.21 GiB
    Duration                                 : 2h 59mn
    Overall bit rate                         : 964 Kbps
    
    Video
    ID                                       : 0
    Format                                   : MPEG-4 Visual
    Format profile                           : Advanced Simple@L5
    Format settings, BVOP                    : 2
    Format settings, QPel                    : No
    Format settings, GMC                     : No warppoints
    Format settings, Matrix                  : Default (H.263)
    Codec ID                                 : XVID
    Codec ID/Hint                            : XviD
    Duration                                 : 2h 59mn
    Bit rate                                 : 830 Kbps
    Width                                    : 640 pixels
    Height                                   : 256 pixels
    Display aspect ratio                     : 2.500
    Frame rate                               : 23.976 fps
    Color space                              : YUV
    Chroma subsampling                       : 4:2:0
    Bit depth                                : 8 bits
    Scan type                                : Progressive
    Compression mode                         : Lossy
    Bits/(Pixel*Frame)                       : 0.211
    Stream size                              : 1.04 GiB (86%)
    Writing library                          : XviD 1.2.1 (UTC 2008-12-04)
    
    Audio
    ID                                       : 1
    Format                                   : MPEG Audio
    Format version                           : Version 1
    Format profile                           : Layer 3
    Mode                                     : Joint stereo
    Mode extension                           : MS Stereo
    Codec ID                                 : 55
    Codec ID/Hint                            : MP3
    Duration                                 : 2h 59mn
    Bit rate mode                            : Constant
    Bit rate                                 : 128 Kbps
    Channel(s)                               : 2 channels
    Sampling rate                            : 48.0 KHz
    Compression mode                         : Lossy
    Stream size                              : 165 MiB (13%)
    Alignment                                : Aligned on interleaves
    Interleave, duration                     : 167 ms (4.00 video frames)
    Interleave, preload duration             : 216 ms
    Title                                    : The.Wolf.of.Wall.Street.2013.BD.LATiNO 128Kbps
    Writing library                          : LAME3.99r
    Encoding settings                        : -m j -V 4 -q 2 -lowpass 17 -b 128
    Language                                 : Español Latino
















    Links
    hidden content may not be quoted
    Contraseña:camix


  6. electro_bj está desconectado *Dios del FORO*
    Fecha de ingreso
    22 sep, 09
    Mensajes
    1,241

    Re: El Lobo de Wall Street (2013) | DVDRip | Español Latino | 1.21 GB | 1 Link |

    graxxxxxxxxxxxxxxxxxxxxxxxxxxxxxxxxxxxxxxxxxxxxxxx xxxxxxxxxxxxxxxxxx

  7. otchh está desconectado *Dios del FORO*
    Fecha de ingreso
    17 feb, 10
    Mensajes
    1,539

    Re: El Lobo de Wall Street (2013) | DVDRip | Español Latino | 1.21 GB | 1 Link |

    Gracias!!!!!!!!!!!

  8. gasevasa está desconectado *Dios del FORO*
    Fecha de ingreso
    11 oct, 09
    Mensajes
    1,323

    Re: El Lobo de Wall Street (2013) | DVDRip | Español Latino | 1.21 GB | 1 Link |

    graciasssssssssssssssssssssssssssssssssssssssssss

  9. ccpc346 está desconectado *User Avanzado*
    Fecha de ingreso
    17 oct, 09
    Mensajes
    142

    Re: El Lobo de Wall Street (2013) | DVDRip | Español Latino | 1.21 GB | 1 Link |

    Gracias por el aporte

  10. cenicero33 está desconectado *Experto*
    Fecha de ingreso
    16 ene, 10
    Mensajes
    269

    Re: El Lobo de Wall Street (2013) | DVDRip | Español Latino | 1.21 GB | 1 Link |

    muchas gracias

  11. beowulfpremium está desconectado *Experto*
    Fecha de ingreso
    20 jun, 09
    Mensajes
    366

    Re: El Lobo de Wall Street (2013) | DVDRip | Español Latino | 1.21 GB | 1 Link |

    Excelente men
    chepor likes this.

  12. hp83 está desconectado *Dios del FORO*
    Fecha de ingreso
    14 jul, 08
    Mensajes
    1,719

    Re: El Lobo de Wall Street (2013) | DVDRip | Español Latino | 1.21 GB | 1 Link |

    Graciasssssssssssssssssssssssssssssssssss
    Cita Iniciado por camix2009 Ver mensaje
    El Lobo de Wall Street (2013) | DVDRip | Español Latino | 1.21 GB | 1 Link |




    TÍTULO ORIGINAL: The Wolf of Wall Street
    OTROS TÍTULOS: El Lobo de Wall Street
    AÑO: 2013
    PAÍS: Estados Unidos
    DURACIÓN: 179 min.
    DIRECTOR: Martin Scorsese
    REPARTO: Leonardo DiCaprio, Jonah Hill, Margot Robbie, Matthew McConaughey, Rob Reiner, Jean Dujardin, Jon Bernthal, Kyle Chandler, Jon Favreau, Ethan Suplee, Katarina Cas, Cristin Milioti, Joanna Lumley, Spike Jonze, Chris Kerson, Shea Whigham, Marcos Antonio Gonzalez, Emily Tremaine, Ashley Blankenship, Madison McKinley
    GUIÓN: Terence Winter (Libro: Jordan Belfort)
    MÚSICA: Howard Shore
    FOTOGRAFÍA: Rodrigo Prieto
    PRODUCTORA: P4r4m0unt P1ctur3s / Red Gr4n1te Pictures / 4ppi4n Way
    GÉNERO: Comedia. Drama. Comedia negra. Biográfico. Bolsa & Negocios. Años 80. Drogas
    PREMIOS
    2013: Premios Oscar: 5 nominaciones, incluyendo mejor película y director
    2013: Globos de Oro: Mejor actor de comedia (Dicaprio). Nomin. a mejor película
    2013: Premios BAFTA: 4 nominaciones, incluyendo Mejor director
    2013: Critics Choice: Mejor actor de comedia (Dicaprio). 6 nominaciones
    2013: National Board of Review (NBR): Top 10 y mejor guión adaptado
    2013: American Film Institute: Top 10 – Mejores películas del año
    2013: Satellite Awards: 5 nominaciones, incluyendo mejor película y director
    2013: Sindicato de Guionistas (WGA): Nominada a Mejor guión adaptado
    FECHA DE ESTRENO USA: 17 de diciembre de 2013
    FECHA DE ESTRENO ARGENTINA: 2 de enero de 2014
    FECHA DE ESTRENO MÉXICO: 10 de enero de 2014
    FECHA DE ESTRENO ESPAÑA: 17 de enero de 2014



    Película basada en hechos reales del corredor de bolsa neoyorquino Jordan Belfort (Leonardo DiCaprio). A mediados de los años ochenta, Belfort era un joven honrado que perseguía el sueño americano, pero pronto en la agencia de valores aprendió que lo más importante no era hacer ganar a sus clientes, sino ser ambicioso y ganar una buena comisión. Su enorme éxito y fortuna cuando tenía poco más de veinte años como fundador de una agencia bursátil le valió el mote de “El lobo de Wall Street”. Dinero. Poder. Mujeres. Drogas. Las tentaciones abundaban y el temor a la ley era irrelevante. Jordan y su manada de lobos consideraban que la discreción era una cualidad anticuada; nunca se conformaban con lo que tenían.


    Tipo y formato:AVI
    Calidad:DVDRip
    Tamaño:1.21 GB

    Audio:Español Latino
    Contraseña:camix
    Uploader:Camix2012
    Servidor:RAPITGATOR, Uploaded, FREAKSHARE, uploadable
    Código:
    General
    Complete name                            : The.Wolf.of.Wall.Street.2013.BDRip.LATiNO.XviD.avi
    Format                                   : AVI
    Format/Info                              : Audio Video Interleave
    File size                                : 1.21 GiB
    Duration                                 : 2h 59mn
    Overall bit rate                         : 964 Kbps
    
    Video
    ID                                       : 0
    Format                                   : MPEG-4 Visual
    Format profile                           : Advanced Simple@L5
    Format settings, BVOP                    : 2
    Format settings, QPel                    : No
    Format settings, GMC                     : No warppoints
    Format settings, Matrix                  : Default (H.263)
    Codec ID                                 : XVID
    Codec ID/Hint                            : XviD
    Duration                                 : 2h 59mn
    Bit rate                                 : 830 Kbps
    Width                                    : 640 pixels
    Height                                   : 256 pixels
    Display aspect ratio                     : 2.500
    Frame rate                               : 23.976 fps
    Color space                              : YUV
    Chroma subsampling                       : 4:2:0
    Bit depth                                : 8 bits
    Scan type                                : Progressive
    Compression mode                         : Lossy
    Bits/(Pixel*Frame)                       : 0.211
    Stream size                              : 1.04 GiB (86%)
    Writing library                          : XviD 1.2.1 (UTC 2008-12-04)
    
    Audio
    ID                                       : 1
    Format                                   : MPEG Audio
    Format version                           : Version 1
    Format profile                           : Layer 3
    Mode                                     : Joint stereo
    Mode extension                           : MS Stereo
    Codec ID                                 : 55
    Codec ID/Hint                            : MP3
    Duration                                 : 2h 59mn
    Bit rate mode                            : Constant
    Bit rate                                 : 128 Kbps
    Channel(s)                               : 2 channels
    Sampling rate                            : 48.0 KHz
    Compression mode                         : Lossy
    Stream size                              : 165 MiB (13%)
    Alignment                                : Aligned on interleaves
    Interleave, duration                     : 167 ms (4.00 video frames)
    Interleave, preload duration             : 216 ms
    Title                                    : The.Wolf.of.Wall.Street.2013.BD.LATiNO 128Kbps
    Writing library                          : LAME3.99r
    Encoding settings                        : -m j -V 4 -q 2 -lowpass 17 -b 128
    Language                                 : Español Latino
















    Links
    hidden content may not be quoted
    Contraseña:camix


  13. chepor está desconectado *Novato Avanzado*
    Fecha de ingreso
    09 abr, 10
    Mensajes
    39

    Re: El Lobo de Wall Street (2013) | DVDRip | Español Latino | 1.21 GB | 1 Link |

    graciassssssssssssssssss

  14. ARMRAMORT está desconectado *Master*
    Fecha de ingreso
    06 may, 08
    Mensajes
    921

    Re: El Lobo de Wall Street (2013) | DVDRip | Español Latino | 1.21 GB | 1 Link |

    Muchas gracias

  15. giovannyrodri está desconectado *User Pro*
    Fecha de ingreso
    16 abr, 09
    Mensajes
    640

    Re: El Lobo de Wall Street (2013) | DVDRip | Español Latino | 1.21 GB | 1 Link |

    gracias!!!!!!!!!!!

  16. juanitorizo está desconectado *Dios del FORO*
    Fecha de ingreso
    09 mar, 10
    Mensajes
    1,091

    Re: El Lobo de Wall Street (2013) | DVDRip | Español Latino | 1.21 GB | 1 Link |

    con permissooooo

  17. jmanson está desconectado *Experto*
    Fecha de ingreso
    01 mar, 10
    Mensajes
    376

    Re: El Lobo de Wall Street (2013) | DVDRip | Español Latino | 1.21 GB | 1 Link |

    muchas gracias

  18. toledosoto está desconectado *User Pro*
    Fecha de ingreso
    09 ago, 10
    Mensajes
    604

    Re: El Lobo de Wall Street (2013) | DVDRip | Español Latino | 1.21 GB | 1 Link |

    bajandooooooooooo gracias

Temas similares

  1. El lobo de Wall Street (2013) [DVD-SCREENER][Castellano MiC DubbeD HQ][Comedia/Drama]
    Por charlesvlz en el foro Peliculas DVD Screener Gratis
    Respuestas: 17
    Último mensaje: 26/06/2014, 19:17
  2. El lobo de Wall Street (2013) Comedia [DVDScreener] [Castellano]
    Por spook90 en el foro Peliculas DVD Screener Gratis
    Respuestas: 4
    Último mensaje: 04/03/2014, 00:12
  3. El lobo de Wall Street (2013 | Castellano | DVD-Screener | 1 Link)
    Por gametrox en el foro Peliculas DVD Screener Gratis
    Respuestas: 4
    Último mensaje: 15/02/2014, 14:21
  4. Respuestas: 0
    Último mensaje: 17/01/2014, 23:17
  5. El lobo de Wall Street (2013) [CAM] [Subtitulado]
    Por palalo en el foro Moviez Peliculas
    Respuestas: 0
    Último mensaje: 09/01/2014, 08:30