Página 1 de 3 123 ÚltimoÚltimo
Resultados 1 al 30 de 84
Like Tree8Likes

Colosio: El Asesinato (2012) DVDRip


Descargar Colosio: El Asesinato (2012) DVDRip Gratis 1 link Full Colosio: El Asesinato (2012) DVDRip por Mediafire con Crack, Serial, KeyGen Full Torrent

  1. Mari018 está desconectado Uploader
    Fecha de ingreso
    18 abr, 10
    Mensajes
    81

    Colosio: El Asesinato (2012) DVDRip






    Es el año de 1994 en México. En el mes de marzo el candidato presidencial del partido gobernante es asesinado. El asesino es apresado pero nadie sabe quién está detrás y circulan rumores de una conspiración. Andrés Vázquez, un experto en inteligencia, es comisionado para llevar a cabo una investigación secreta y paralela a la oficial. Pero otro experto agente ha recibido la orden de eliminar a todos los testigos y desaparecer las evidencias del asesinato. Conforme Andrés se va acercando a la verdad, también pone en peligro su vida y la de sus seres queridos.

    Código:
    http://www.imdb.com/title/tt2398143/


    Genere: Thriller
    IMDB Rating: 7.7/10 from 346 users
    Directed by: Carlos Bolado
    Starring: José María Yazpik, Daniel Giménez Cacho and Kate del Castill
    o

    Código:
    Format                                   : AVI
    Format/Info                              : Audio Video Interleave
    File size                                : 760 MiB
    Duration                                 : 1h 42mn
    Overall bit rate                         : 1 042 Kbps
    Writing application                      : Lavf52.93.0
    
    Video
    ID                                       : 0
    Format                                   : xvid
    Codec ID                                 : xvid
    Duration                                 : 1h 42mn
    Bit rate                                 : 900 Kbps
    Width                                    : 720 pixels
    Height                                   : 480 pixels
    Display aspect ratio                     : 3:2
    Frame rate                               : 29.970 fps
    Standard                                 : NTSC
    Bits/(Pixel*Frame)                       : 0.087
    Stream size                              : 657 MiB (86%)
    
    Audio
    ID                                       : 1
    Format                                   : MPEG Audio
    Format version                           : Version 1
    Format profile                           : Layer 3
    Mode                                     : Joint stereo
    Mode extension                           : MS Stereo
    Codec ID                                 : 55
    Codec ID/Hint                            : MP3
    Duration                                 : 1h 42mn
    Bit rate mode                            : Constant
    Bit rate                                 : 128 Kbps
    Channel(s)                               : 2 channels
    Sampling rate                            : 44.1 KHz
    Compression mode                         : Lossy
    Stream size                              : 93.4 MiB (12%)
    Alignment                                : Aligned on interleaves
    Interleave, duration                     : 26 ms (0.78 video frame)
    Writing library                          : LAME
















    Contenido Oculto Este post contiene información oculta, debes contestar el post o hacer click en el botón 'Gracias' para ver el contenido.

    Última edición por Mari018; 24/08/2012 a las 22:20



  2. mago_64 está desconectado *User Avanzado*
    Fecha de ingreso
    22 abr, 12
    Mensajes
    130

    Re: Colosio: El Asesinato (2012) DVDRip

    muchas gracias la esperaba

  3. mago_64 está desconectado *User Avanzado*
    Fecha de ingreso
    22 abr, 12
    Mensajes
    130

    Re: Colosio: El Asesinato (2012) DVDRip

    graciassssssssssssssssssssss

  4. axacen está desconectado *User Pro*
    Fecha de ingreso
    09 mar, 10
    Mensajes
    466

    Re: Colosio: El Asesinato (2012) DVDRip

    gracias vi cortos y se ve que esta interesante

  5. draco_dj está desconectado *User Pro*
    Fecha de ingreso
    06 ago, 08
    Mensajes
    621

    Re: Colosio: El Asesinato (2012) DVDRip

    vamos a checarla gracias.

  6. juanitorizo está desconectado *Dios del FORO*
    Fecha de ingreso
    09 mar, 10
    Mensajes
    1,091

    Re: Colosio: El Asesinato (2012) DVDRip

    la quiero man graciasss

  7. annie está desconectado *Experto*
    Fecha de ingreso
    15 oct, 08
    Mensajes
    306

    Re: Colosio: El Asesinato (2012) DVDRip

    gracias,gracias,graciaaaaaaas!!!

  8. ikuwa999 está desconectado *Master*
    Fecha de ingreso
    18 jun, 08
    Mensajes
    974

    Re: Colosio: El Asesinato (2012) DVDRip

    gracias por el aporte

  9. serial777 está desconectado *Novato Avanzado*
    Fecha de ingreso
    04 jun, 12
    Mensajes
    48

    Re: Colosio: El Asesinato (2012) DVDRip

    muchas gracias thx

  10. serjg1 está desconectado *Experto*
    Fecha de ingreso
    08 dic, 10
    Mensajes
    290

    Re: Colosio: El Asesinato (2012) DVDRip

    gracias por el aporte

  11. houserroad está desconectado *Dios del FORO*
    Fecha de ingreso
    27 jul, 09
    Mensajes
    4,150

    Re: Colosio: El Asesinato (2012) DVDRip

    gracias por esta buena pelicula mexicana

  12. MarioF está desconectado *Master*
    Fecha de ingreso
    29 jun, 08
    Mensajes
    984

    Re: Colosio: El Asesinato (2012) DVDRip

    Gracias por la pelicula

  13. doc35 está desconectado *Master*
    Fecha de ingreso
    27 feb, 09
    Mensajes
    726

    Re: Colosio: El Asesinato (2012) DVDRip

    gracias...................

  14. BANDH está desconectado *Master*
    Fecha de ingreso
    15 abr, 08
    Mensajes
    759

    Re: Colosio: El Asesinato (2012) DVDRip

    graciasssssssss

  15. medicoresidente está desconectado *User Avanzado*
    Fecha de ingreso
    01 ene, 09
    Mensajes
    128

    Re: Colosio: El Asesinato (2012) DVDRip

    gracias!!!!!

  16. inchao está desconectado *User Pro*
    Fecha de ingreso
    15 mar, 08
    Mensajes
    636

    Re: Colosio: El Asesinato (2012) DVDRip

    ok milgracias

  17. rendonpaz está desconectado *User Pro*
    Fecha de ingreso
    02 feb, 10
    Mensajes
    508

    Re: Colosio: El Asesinato (2012) DVDRip

    gran aporte, se agradece

  18. Avatar de loco33
    loco33 está desconectado *Master*
    Fecha de ingreso
    25 oct, 08
    Mensajes
    790

    Re: Colosio: El Asesinato (2012) DVDRip

    gracias por compartir

  19. Avatar de meztizo
    meztizo está desconectado *Experto*
    Fecha de ingreso
    06 feb, 08
    Ubicación
    Cancun, Mexico
    Mensajes
    281

    Re: Colosio: El Asesinato (2012) DVDRip

    gracias...la he estado buscando

  20. antonioruizmartinez está desconectado *Novato Avanzado*
    Fecha de ingreso
    02 dic, 11
    Mensajes
    82

    Re: Colosio: El Asesinato (2012) DVDRip

    grandisismo aporte...............

  21. japl1979 está desconectado *User Pro*
    Fecha de ingreso
    18 ago, 09
    Mensajes
    497

    Re: Colosio: El Asesinato (2012) DVDRip

    gracias por tu aporte

  22. NaguX está desconectado *Experto*
    Fecha de ingreso
    13 dic, 09
    Mensajes
    218

    Re: Colosio: El Asesinato (2012) DVDRip

    graciassssssssss

  23. JAVIER_CUENCA está desconectado *Dios del FORO*
    Fecha de ingreso
    18 abr, 08
    Ubicación
    Veracruz Mexico
    Mensajes
    2,060

    Re: Colosio: El Asesinato (2012) DVDRip

    gracias por el aporte...ok

  24. mastodo está desconectado *Experto*
    Fecha de ingreso
    22 may, 10
    Mensajes
    224

    Re: Colosio: El Asesinato (2012) DVDRip

    Cita Iniciado por Mari018 Ver mensaje




    Es el año de 1994 en México. En el mes de marzo el candidato presidencial del partido gobernante es asesinado. El asesino es apresado pero nadie sabe quién está detrás y circulan rumores de una conspiración. Andrés Vázquez, un experto en inteligencia, es comisionado para llevar a cabo una investigación secreta y paralela a la oficial. Pero otro experto agente ha recibido la orden de eliminar a todos los testigos y desaparecer las evidencias del asesinato. Conforme Andrés se va acercando a la verdad, también pone en peligro su vida y la de sus seres queridos.

    Código:
    http://www.imdb.com/title/tt2398143/


    Genere: Thriller
    IMDB Rating: 7.7/10 from 346 users
    Directed by: Carlos Bolado
    Starring: José María Yazpik, Daniel Giménez Cacho and Kate del Castill
    o

    Código:
    Format                                   : AVI
    Format/Info                              : Audio Video Interleave
    File size                                : 760 MiB
    Duration                                 : 1h 42mn
    Overall bit rate                         : 1 042 Kbps
    Writing application                      : Lavf52.93.0
    
    Video
    ID                                       : 0
    Format                                   : xvid
    Codec ID                                 : xvid
    Duration                                 : 1h 42mn
    Bit rate                                 : 900 Kbps
    Width                                    : 720 pixels
    Height                                   : 480 pixels
    Display aspect ratio                     : 3:2
    Frame rate                               : 29.970 fps
    Standard                                 : NTSC
    Bits/(Pixel*Frame)                       : 0.087
    Stream size                              : 657 MiB (86%)
    
    Audio
    ID                                       : 1
    Format                                   : MPEG Audio
    Format version                           : Version 1
    Format profile                           : Layer 3
    Mode                                     : Joint stereo
    Mode extension                           : MS Stereo
    Codec ID                                 : 55
    Codec ID/Hint                            : MP3
    Duration                                 : 1h 42mn
    Bit rate mode                            : Constant
    Bit rate                                 : 128 Kbps
    Channel(s)                               : 2 channels
    Sampling rate                            : 44.1 KHz
    Compression mode                         : Lossy
    Stream size                              : 93.4 MiB (12%)
    Alignment                                : Aligned on interleaves
    Interleave, duration                     : 26 ms (0.78 video frame)
    Writing library                          : LAME
















    hidden content may not be quoted
    la estaba buscando

  25. rayo_a está desconectado *User Pro*
    Fecha de ingreso
    10 mar, 11
    Mensajes
    466

    Re: Colosio: El Asesinato (2012) DVDRip

    Muchas gracias por el aporte

  26. cgato está desconectado *User Avanzado*
    Fecha de ingreso
    27 may, 09
    Mensajes
    159

    Re: Colosio: El Asesinato (2012) DVDRip

    gracias por el aporte

  27. djtra03 está desconectado *Experto*
    Fecha de ingreso
    06 jul, 11
    Mensajes
    284

    Re: Colosio: El Asesinato (2012) DVDRip

    gracias por el aporte exelente pelicula

  28. kaninchen1998 está desconectado *User Pro*
    Fecha de ingreso
    28 abr, 10
    Mensajes
    562

    Re: Colosio: El Asesinato (2012) DVDRip

    graciasssssssssss

  29. conborei está desconectado *Experto*
    Fecha de ingreso
    12 feb, 08
    Mensajes
    239

    Re: Colosio: El Asesinato (2012) DVDRip

    gracias por el aporte

  30. Elias57 está desconectado *User Pro*
    Fecha de ingreso
    17 sep, 11
    Mensajes
    699

    Re: Colosio: El Asesinato (2012) DVDRip

    Descargando,gracias.

Página 1 de 3 123 ÚltimoÚltimo

Temas similares

  1. Asesinato.com (2002)[Dvdrip][Thriller][español]
    Por atomo28 en el foro Peliculas DVDRip en Castellano
    Respuestas: 2
    Último mensaje: 07/05/2012, 23:37
  2. Asesinato en 8mm [DvdRip, Castellano, Thriller, 1999]
    Por cusiMimi en el foro Peliculas DVDRip en Castellano
    Respuestas: 0
    Último mensaje: 12/04/2012, 16:54
  3. El Asesinato de la Princesa Diana[DVDRip][español]
    Por Dracon360 en el foro Peliculas DVDRip en Castellano
    Respuestas: 0
    Último mensaje: 15/10/2011, 00:18
  4. Asesinato justo [dvdrip][esp][Thriller][2008][Fs]
    Por mehagorico en el foro Peliculas DVDRip en Castellano
    Respuestas: 0
    Último mensaje: 15/09/2011, 08:26
  5. ASesinato en la Casa Blanca [DVDrip]
    Por pierothepitbul2 en el foro Peliculas DVDRip en Español Latino
    Respuestas: 0
    Último mensaje: 09/09/2011, 00:28

Etiquetas para este tema