Resultados 1 al 10 de 10
Like Tree6Likes
  • 6 Post By djrey18

Cuatro Bodas Y Un Funeral [DVDRip Comedia Español/España 1994]


Descargar Cuatro Bodas Y Un Funeral [DVDRip Comedia Español/España 1994] Gratis 1 link Full Cuatro Bodas Y Un Funeral [DVDRip Comedia Español/España 1994] por Mediafire con Crack, Serial, KeyGen Full Torrent

  1. djrey18 está desconectado *Experto*
    Fecha de ingreso
    23 may, 10
    Mensajes
    303

    Cuatro Bodas Y Un Funeral [DVDRip Comedia Español/España 1994]





    Información del archivo en el servidor
    Partes: 3
    Servidor: US
    Tamaño: 1.37 Gb

    Sinopsis
    Charles (Hugh Grant) y su grupo de amigos, todos ellos solteros y sin compromiso, han llegado a una edad en la que
    casi todos sus conocidos se han casado. En una de las bodas, a la que el grupo ha sido invitado, Charles conoce
    a Carrie (Andie Macdowell), una americana de la que se enamora a primera vista. Esa noche la pasan juntos,
    pero no vuelven a verse. Tendrán que esperar a la siguiente boda, en la
    que Carrie le presenta a su prometido.

    Caps





    Ficha Tenica

    TÍTULO ORIGINAL Four Weddings and a Funeral
    AÑO
    1994
    DURACIÓN
    118 min.
    PAÍS
    Reino Unido
    DIRECTOR Mike Newell
    GUIÓN Richard Curtis
    MÚSICA Richard Rodney Bennett
    FOTOGRAFÍA Michael Coulter
    REPARTO Hugh Grant, Andie Macdowell, Kristin Scott Thomas, Simon Callow, James Fleet, John Hannah, Charlotte Coleman, David Bower, Corin Redgrave, Rowan Atkinson, Hannah Taylor Gordon
    PRODUCTORA Polygram Film Entertainment / Channel Four Films / Working Title
    PREMIOS 1994: 2 Nominaciones al Oscar: Mejor película, guión original
    1994: 1 Globo de Oro: Mejor actor de comedia o musical (Hugh Grant). 4 nominaciones
    1994: 4 premios BAFTA, incluyendo película, actriz secundaria (Thomas), actor (Grant)
    1994: Premios Cesar: Mejor película extranjera
    1994: Premio AFI: Mejor película extranjera
    GÉNERO Comedia. Romance | Comedia romántica. Bodas

    Datos de ripeo

    General
    Complete name : files/DjR-Cuatro.Bodas.Y.Un.Funeral_CAS.avi
    Format : AVI
    Format/Info : Audio Video Interleave
    File size : 1.37 GiB
    Duration : 1h 53mn
    Overall bit rate : 1 733 Kbps
    Writing application : VirtualDubMod 1.5.4.1 (build 2178/release)
    Writing library : VirtualDubMod build 2178/release

    Video
    ID : 0
    Format : MPEG-4 Visual
    Format profile : Advanced Simple@L5
    Format settings, BVOP : Yes
    Format settings, QPel : No
    Format settings, GMC : No warppoints
    Format settings, Matrix : Custom
    Codec ID : XVID
    Codec ID/Hint : XviD
    Duration : 1h 53mn
    Bit rate : 1 278 Kbps
    Width : 640 pixels
    Height : 352 pixels
    Display aspect ratio : 16:9
    Frame rate : 25.000 fps
    Color space : YUV
    Chroma subsampling : 4:2:0
    Bit depth : 8 bits
    Scan type : Progressive
    Compression mode : Lossy
    Bits/(Pixel*Frame) : 0.227
    Stream size : 1.01 GiB (74%)
    Writing library : XviD 1.2.0.dev47 (UTC 2006-11-01)

    Audio
    ID : 1
    Format : AC-3
    Format/Info : Audio Coding 3
    Mode extension : CM (complete main)
    Codec ID : 2000
    Duration : 1h 53mn
    Bit rate mode : Constant
    Bit rate : 448 Kbps
    Channel(s) : 6 channels
    Channel positions : Front: L C R, Side: L R, LFE
    Sampling rate : 48.0 KHz
    Bit depth : 16 bits
    Compression mode : Lossy
    Stream size : 362 MiB (26%)
    Alignment : Aligned on interleaves
    Interleave, duration : 96 ms (2.40 video frames)
    Interleave, preload duration : 96 ms
    Language : Spanish

    Descarga
    US
    Contenido Oculto Este post contiene información oculta, debes contestar el post o hacer click en el botón 'Gracias' para ver el contenido.


    Nota: Si encuentras un link caído avísame para volverlo a subir
    -PM-, ibarbero, majipi and 3 others like this.



  2. jmtrilero está desconectado *Novato reciente*
    Fecha de ingreso
    27 dic, 09
    Mensajes
    6

    Re: Cuatro Bodas Y Un Funeral [DVDRip Comedia Español/España 1994]

    graciassssssssssssssssssssssssss

  3. taarkk está desconectado *Novato reciente*
    Fecha de ingreso
    01 may, 12
    Mensajes
    9

    Re: Cuatro Bodas Y Un Funeral [DVDRip Comedia Español/España 1994]

    gracias



    Format/Info : Audio Video Interleave
    File size : 1.37 GiB
    Duration : 1h 53mn
    Overall bit rate : 1 733 Kbps
    Writing application : VirtualDubMod 1.5.4.1 (build 2178/release)
    Writing library : VirtualDubMod build 2178/release

    Video
    ID : 0
    Format : MPEG-4 Visual
    Format profile : Advanced Simple@L5
    Format settings, BVOP : Yes
    Format settings, QPel : No
    Format settings, GMC : No warppoints
    Format settings, Matrix : Custom
    Codec ID : XVID
    Codec ID/Hint : XviD
    Duration : 1h 53mn
    Bit rate : 1 278 Kbps
    Width : 640 pixels
    Height : 352 pixels
    Display aspect ratio : 16:9
    Frame rate : 25.000 fps
    Color space : YUV
    Chroma subsampling : 4:2:0
    Bit depth : 8 bits
    Scan type : Progressive
    Compression mode : Lossy
    Bits/(Pixel*Frame) : 0.227
    Stream size : 1.01 GiB (74%)
    Writing library : XviD 1.2.0.dev47 (UTC 2006-11-01)

    Audio
    ID : 1
    Format : AC-3
    Format/Info : Audio Coding 3
    Mode extension : CM (complete main)
    Codec ID : 2000
    Duration : 1h 53mn
    Bit rate mode : Constant
    Bit rate : 448 Kbps
    Channel(s) : 6 channels
    Channel positions : Front: L C R, Side: L R, LFE
    Sampling rate : 48.0 KHz
    Bit depth : 16 bits
    Compression mode : Lossy
    Stream size : 362 MiB (26%)
    Alignment : Aligned on interleaves
    Interleave, duration : 96 ms (2.40 video frames)
    Interleave, preload duration : 96 ms
    Language : Spanish

    Descarga
    US
    hidden content may not be quoted

    Nota: Si encuentras un link caído avísame para volverlo a subir
    [/CENTER][/QUOTE]

  4. BLaS_001 está desconectado *Novato reciente*
    Fecha de ingreso
    09 oct, 09
    Mensajes
    4

    Re: Cuatro Bodas Y Un Funeral [DVDRip Comedia Español/España 1994]

    gracias weeeeee

  5. foresa está desconectado *Novato reciente*
    Fecha de ingreso
    15 oct, 09
    Mensajes
    8

    Re: Cuatro Bodas Y Un Funeral [DVDRip Comedia Español/España 1994]

    Gracias por la peli

  6. fran38madrid está desconectado *Novato reciente*
    Fecha de ingreso
    17 oct, 10
    Mensajes
    19

    Re: Cuatro Bodas Y Un Funeral [DVDRip Comedia Español/España 1994]

    gracias

    fran38madrid

  7. mamaglamur está desconectado *Novato Avanzado*
    Fecha de ingreso
    20 nov, 09
    Mensajes
    44

    Re: Cuatro Bodas Y Un Funeral [DVDRip Comedia Español/España 1994]

    muchisimas gracias, a ver si va esto...

  8. mamaglamur está desconectado *Novato Avanzado*
    Fecha de ingreso
    20 nov, 09
    Mensajes
    44

    Re: Cuatro Bodas Y Un Funeral [DVDRip Comedia Español/España 1994]

    muchisimas gracias, la esperaba

  9. mamaglamur está desconectado *Novato Avanzado*
    Fecha de ingreso
    20 nov, 09
    Mensajes
    44

    Re: Cuatro Bodas Y Un Funeral [DVDRip Comedia Español/España 1994]

    gracias majete......

  10. yoskf está desconectado *Novato Avanzado*
    Fecha de ingreso
    29 jun, 11
    Mensajes
    30

    Re: Cuatro Bodas Y Un Funeral [DVDRip Comedia Español/España 1994]

    graciasssssssssssss

Temas similares

  1. Agarralo Como Puedas 33 y 1/3 [Dvdrip Comedia Español/España 1994]
    Por djrey18 en el foro Peliculas DVDRip en Castellano
    Respuestas: 2
    Último mensaje: 27/09/2013, 18:54
  2. Los Picapiedra [HD.Rip Comedia Español/España 1994]
    Por flakito1 en el foro Moviez Peliculas
    Respuestas: 5
    Último mensaje: 01/05/2013, 09:41
  3. Clerks [DVDRip Comedia Español/España 1994]
    Por djrey18 en el foro Peliculas DVDRip en Castellano
    Respuestas: 3
    Último mensaje: 25/10/2012, 11:07
  4. Bodas Por Encargo [DVDRip Romance/Comedia Español/España 2005]
    Por djrey18 en el foro Peliculas DVDRip en Castellano
    Respuestas: 1
    Último mensaje: 22/04/2012, 14:50
  5. 27 Bodas[2008][Comedia Romantica][Dvdrip][Español]
    Por djrey18 en el foro Peliculas DVDRip en Castellano
    Respuestas: 0
    Último mensaje: 11/04/2011, 01:15

Etiquetas para este tema