Página 1 de 4 123 ... ÚltimoÚltimo
Resultados 1 al 30 de 110

España-Todos los partidos del campeon-Mundial SudAfrica2010


Descargar España-Todos los partidos del campeon-Mundial SudAfrica2010 Gratis 1 link Full España-Todos los partidos del campeon-Mundial SudAfrica2010 por Mediafire con Crack, Serial, KeyGen Full Torrent

  1. percebegallego está desconectado *Novato Avanzado*
    Fecha de ingreso
    14 jun, 10
    Mensajes
    81

    España-Todos los partidos del campeon-Mundial SudAfrica2010







    Los partidos de España en este mundial con una calidad de

    imagen buenísima y en multiaudio

    Todos los partidos en HD retransmitidos por Canal + Liga




    Calidad (info) :

    General
    Format : AVI
    Format/Info : Audio Video Interleave
    File size : 1.06 GiB
    Duration : 56mn 27s
    Overall bit rate : 2 677 Kbps
    Writing application : VirtualDubMod 1.5.10.2 (build 2542/release)
    Writing library : VirtualDubMod build 2542/release

    Video
    ID : 0
    Format : MPEG-4 Visual
    Format settings, BVOP : Yes
    Format settings, QPel : No
    Format settings, GMC : No warppoints
    Format settings, Matrix : Default (H.263)
    Muxing mode : Packed bitstream
    Codec ID : DX50
    Codec ID/Hint : DivX 5
    Duration : 56mn 27s
    Bit rate : 2 008 Kbps
    Width : 704 pixels
    Height : 400 pixels
    Display aspect ratio : 16:9
    Frame rate : 25.000 fps
    Resolution : 8 bits
    Colorimetry : 4:2:0
    Scan type : Progressive
    Bits/(Pixel*Frame) : 0.285
    Stream size : 811 MiB (75%)
    Writing library : DivX 6.8.5 (UTC 2009-08-20)

    Audio #1
    ID : 1
    Format : MPEG Audio
    Format version : Version 1
    Format profile : Layer 3
    Mode : Joint stereo
    Format_Settings_ModeExtension : MS Stereo
    Codec ID : 55
    Codec ID/Hint : MP3
    Duration : 56mn 27s
    Bit rate mode : Constant
    Bit rate : 128 Kbps
    Channel(s) : 2 channels
    Sampling rate : 48.0 KHz
    Stream size : 51.7 MiB (5%)
    Alignment : Split accross interleaves
    Interleave, duration : 40 ms (1.00 video frame)
    Interleave, preload duration : 500 ms





    España vs Suiza

    Contenido Oculto Este post contiene información oculta, debes contestar el post o hacer click en el botón 'Gracias' para ver el contenido.





    España vs Honduras
    Contenido Oculto Este post contiene información oculta, debes contestar el post o hacer click en el botón 'Gracias' para ver el contenido.




    Chile vs España

    Contenido Oculto Este post contiene información oculta, debes contestar el post o hacer click en el botón 'Gracias' para ver el contenido.




    España vs Portugal

    Contenido Oculto Este post contiene información oculta, debes contestar el post o hacer click en el botón 'Gracias' para ver el contenido.





    Paraguay vs España

    Contenido Oculto Este post contiene información oculta, debes contestar el post o hacer click en el botón 'Gracias' para ver el contenido.





    Espana vs Alemania

    Contenido Oculto Este post contiene información oculta, debes contestar el post o hacer click en el botón 'Gracias' para ver el contenido.





    Holanda vs España

    (Final)

    Contenido Oculto Este post contiene información oculta, debes contestar el post o hacer click en el botón 'Gracias' para ver el contenido.





    [YOUTUBE]Du5EYfdL_fE[/YOUTUBE]

    [YOUTUBE]nIOC-sEMazk[/YOUTUBE]

    [YOUTUBE]NIMhzUNG734[/YOUTUBE]



  2. pque está desconectado *Novato reciente*
    Fecha de ingreso
    22 ene, 09
    Mensajes
    9

    Re: España-Todos los partidos del campeon-Mundial SudAfrica2010

    Gracias!!!!!

  3. quijote36 está desconectado *Novato reciente*
    Fecha de ingreso
    24 mar, 09
    Mensajes
    8

    Re: España-Todos los partidos del campeon-Mundial SudAfrica2010

    muchas gracias. a ver que tal se ve

  4. pque está desconectado *Novato reciente*
    Fecha de ingreso
    22 ene, 09
    Mensajes
    9

    Re: España-Todos los partidos del campeon-Mundial SudAfrica2010

    Hola.

    Del partido España vs Suiza falta la parte 14. Podrías subirla?. Gracias!

  5. shadow28 está desconectado *Novato reciente*
    Fecha de ingreso
    09 ene, 10
    Mensajes
    8

    Re: España-Todos los partidos del campeon-Mundial SudAfrica2010

    Muchas gracias

  6. pque está desconectado *Novato reciente*
    Fecha de ingreso
    22 ene, 09
    Mensajes
    9

    Re: España-Todos los partidos del campeon-Mundial SudAfrica2010

    Hola de nuevo.

    Del partido Chile-España falta la parte 28.

  7. emani98 está desconectado *Novato Avanzado*
    Fecha de ingreso
    29 may, 10
    Mensajes
    46

    Re: España-Todos los partidos del campeon-Mundial SudAfrica2010

    graciassssssssss

  8. murciano84 está desconectado *Novato Avanzado*
    Fecha de ingreso
    19 may, 09
    Mensajes
    93

    Re: España-Todos los partidos del campeon-Mundial SudAfrica2010

    capeonesssssssssssssssssssssssssssssssssssssssssss ssssssssssssssssssssssssssssssssssss

  9. triki_jaen está desconectado *Experto*
    Fecha de ingreso
    27 jun, 10
    Mensajes
    202

    Re: España-Todos los partidos del campeon-Mundial SudAfrica2010

    campeoneeeees

  10. tamayosky está desconectado *Novato reciente*
    Fecha de ingreso
    17 jul, 10
    Mensajes
    9

    Re: España-Todos los partidos del campeon-Mundial SudAfrica2010

    España-Todos los partidos del campeon-Mundial SudAfrica2010

  11. campmun está desconectado *Novato reciente*
    Fecha de ingreso
    17 jul, 10
    Mensajes
    1

    Re: España-Todos los partidos del campeon-Mundial SudAfrica2010

    Una gozada poder conservarlos. Grácias.

  12. peterpan30_6 está desconectado *Novato reciente*
    Fecha de ingreso
    18 jul, 10
    Mensajes
    3

    Re: España-Todos los partidos del campeon-Mundial SudAfrica2010

    gracias por los partidos

  13. peterpan30_6 está desconectado *Novato reciente*
    Fecha de ingreso
    18 jul, 10
    Mensajes
    3

    Re: España-Todos los partidos del campeon-Mundial SudAfrica2010

    gracias campeones

  14. peterpan30_6 está desconectado *Novato reciente*
    Fecha de ingreso
    18 jul, 10
    Mensajes
    3

    Re: España-Todos los partidos del campeon-Mundial SudAfrica2010

    gracias por el aporte

  15. logomia está desconectado *Novato Avanzado*
    Fecha de ingreso
    03 nov, 08
    Mensajes
    71

    Re: España-Todos los partidos del campeon-Mundial SudAfrica2010

    Muy buen trabajo.

    Muchas gracias

  16. misteriusmen está desconectado *User Pro*
    Fecha de ingreso
    21 ago, 09
    Mensajes
    664

    Re: España-Todos los partidos del campeon-Mundial SudAfrica2010

    gracias es historico tener esta coleccion sois unos cracks

  17. manixe está desconectado *User Avanzado*
    Fecha de ingreso
    01 abr, 10
    Mensajes
    154

    Re: España-Todos los partidos del campeon-Mundial SudAfrica2010

    Cita Iniciado por percebegallego Ver mensaje





    Los partidos de España en este mundial con una calidad de

    imagen buenísima y en multiaudio

    Todos los partidos en HD retransmitidos por Canal + Liga




    Calidad (info) :

    General
    Format : AVI
    Format/Info : Audio Video Interleave
    File size : 1.06 GiB
    Duration : 56mn 27s
    Overall bit rate : 2 677 Kbps
    Writing application : VirtualDubMod 1.5.10.2 (build 2542/release)
    Writing library : VirtualDubMod build 2542/release

    Video
    ID : 0
    Format : MPEG-4 Visual
    Format settings, BVOP : Yes
    Format settings, QPel : No
    Format settings, GMC : No warppoints
    Format settings, Matrix : Default (H.263)
    Muxing mode : Packed bitstream
    Codec ID : DX50
    Codec ID/Hint : DivX 5
    Duration : 56mn 27s
    Bit rate : 2 008 Kbps
    Width : 704 pixels
    Height : 400 pixels
    Display aspect ratio : 16:9
    Frame rate : 25.000 fps
    Resolution : 8 bits
    Colorimetry : 4:2:0
    Scan type : Progressive
    Bits/(Pixel*Frame) : 0.285
    Stream size : 811 MiB (75%)
    Writing library : DivX 6.8.5 (UTC 2009-08-20)

    Audio #1
    ID : 1
    Format : MPEG Audio
    Format version : Version 1
    Format profile : Layer 3
    Mode : Joint stereo
    Format_Settings_ModeExtension : MS Stereo
    Codec ID : 55
    Codec ID/Hint : MP3
    Duration : 56mn 27s
    Bit rate mode : Constant
    Bit rate : 128 Kbps
    Channel(s) : 2 channels
    Sampling rate : 48.0 KHz
    Stream size : 51.7 MiB (5%)
    Alignment : Split accross interleaves
    Interleave, duration : 40 ms (1.00 video frame)
    Interleave, preload duration : 500 ms





    España vs Suiza

    hidden content may not be quoted




    España vs Honduras
    hidden content may not be quoted



    Chile vs España

    hidden content may not be quoted



    España vs Portugal

    hidden content may not be quoted




    Paraguay vs España

    hidden content may not be quoted




    Espana vs Alemania

    hidden content may not be quoted




    Holanda vs España

    (Final)

    hidden content may not be quoted




    [YOUTUBE]Du5EYfdL_fE[/YOUTUBE]

    [YOUTUBE]nIOC-sEMazk[/YOUTUBE]

    [YOUTUBE]NIMhzUNG734[/YOUTUBE]
    gracias compa

  18. Samuelillo21 está desconectado *User Avanzado*
    Fecha de ingreso
    10 jul, 10
    Mensajes
    131

    Re: España-Todos los partidos del campeon-Mundial SudAfrica2010

    Cita Iniciado por percebegallego Ver mensaje





    Los partidos de España en este mundial con una calidad de

    imagen buenísima y en multiaudio

    Todos los partidos en HD retransmitidos por Canal + Liga




    Calidad (info) :

    General
    Format : AVI
    Format/Info : Audio Video Interleave
    File size : 1.06 GiB
    Duration : 56mn 27s
    Overall bit rate : 2 677 Kbps
    Writing application : VirtualDubMod 1.5.10.2 (build 2542/release)
    Writing library : VirtualDubMod build 2542/release

    Video
    ID : 0
    Format : MPEG-4 Visual
    Format settings, BVOP : Yes
    Format settings, QPel : No
    Format settings, GMC : No warppoints
    Format settings, Matrix : Default (H.263)
    Muxing mode : Packed bitstream
    Codec ID : DX50
    Codec ID/Hint : DivX 5
    Duration : 56mn 27s
    Bit rate : 2 008 Kbps
    Width : 704 pixels
    Height : 400 pixels
    Display aspect ratio : 16:9
    Frame rate : 25.000 fps
    Resolution : 8 bits
    Colorimetry : 4:2:0
    Scan type : Progressive
    Bits/(Pixel*Frame) : 0.285
    Stream size : 811 MiB (75%)
    Writing library : DivX 6.8.5 (UTC 2009-08-20)

    Audio #1
    ID : 1
    Format : MPEG Audio
    Format version : Version 1
    Format profile : Layer 3
    Mode : Joint stereo
    Format_Settings_ModeExtension : MS Stereo
    Codec ID : 55
    Codec ID/Hint : MP3
    Duration : 56mn 27s
    Bit rate mode : Constant
    Bit rate : 128 Kbps
    Channel(s) : 2 channels
    Sampling rate : 48.0 KHz
    Stream size : 51.7 MiB (5%)
    Alignment : Split accross interleaves
    Interleave, duration : 40 ms (1.00 video frame)
    Interleave, preload duration : 500 ms





    España vs Suiza

    hidden content may not be quoted




    España vs Honduras
    hidden content may not be quoted



    Chile vs España

    hidden content may not be quoted



    España vs Portugal

    hidden content may not be quoted




    Paraguay vs España

    hidden content may not be quoted




    Espana vs Alemania

    hidden content may not be quoted




    Holanda vs España

    (Final)

    hidden content may not be quoted




    [YOUTUBE]Du5EYfdL_fE[/YOUTUBE]

    [YOUTUBE]nIOC-sEMazk[/YOUTUBE]

    [YOUTUBE]NIMhzUNG734[/YOUTUBE]
    te quieroooooooooooooooooooooooooo(LLLLLLLLL)

  19. Samuelillo21 está desconectado *User Avanzado*
    Fecha de ingreso
    10 jul, 10
    Mensajes
    131

    Re: España-Todos los partidos del campeon-Mundial SudAfrica2010

    me encantaaaaaaaaaaaaaa!!!

  20. manu1508 está desconectado *Novato reciente*
    Fecha de ingreso
    01 abr, 10
    Mensajes
    10

    Re: España-Todos los partidos del campeon-Mundial SudAfrica2010

    Fenomenal, muchas gracias

  21. kaiser1973 está desconectado *Novato reciente*
    Fecha de ingreso
    21 jul, 10
    Mensajes
    5

    Re: España-Todos los partidos del campeon-Mundial SudAfrica2010

    gracias amigo, campeoneeeees

  22. tenkai50 está desconectado *Novato Avanzado*
    Fecha de ingreso
    17 jun, 09
    Mensajes
    60

    Re: España-Todos los partidos del campeon-Mundial SudAfrica2010

    gracias, los queria en avi

  23. sulm está desconectado *Novato reciente*
    Fecha de ingreso
    06 jul, 10
    Mensajes
    7

    Re: España-Todos los partidos del campeon-Mundial SudAfrica2010

    muchas gracias

  24. grifa está desconectado *User Avanzado*
    Fecha de ingreso
    06 abr, 10
    Mensajes
    114

    Re: España-Todos los partidos del campeon-Mundial SudAfrica2010

    eres la cañaaaaaaa

  25. corriente10 está desconectado *Experto*
    Fecha de ingreso
    28 mar, 10
    Mensajes
    257

    Re: España-Todos los partidos del campeon-Mundial SudAfrica2010

    gracias.vamos españa oeoeoeoeoe

  26. crispor está desconectado *Novato reciente*
    Fecha de ingreso
    27 jul, 10
    Mensajes
    11

    Re: España-Todos los partidos del campeon-Mundial SudAfrica2010

    graciaaaaaaaaaaaaaas

  27. cirujata está desconectado *Novato reciente*
    Fecha de ingreso
    09 feb, 09
    Mensajes
    19

    Re: España-Todos los partidos del campeon-Mundial SudAfrica2010

    Muchísimas gracias, somos los mejores, CAMPEONES DEL MUNDO!!!!!

  28. antofagasta91 está desconectado *Novato reciente*
    Fecha de ingreso
    28 nov, 08
    Mensajes
    25

    Re: España-Todos los partidos del campeon-Mundial SudAfrica2010

    gracias men sigue asi no mas jejje

  29. gerbasic está desconectado *Experto*
    Fecha de ingreso
    08 mar, 10
    Mensajes
    257

    Re: España-Todos los partidos del campeon-Mundial SudAfrica2010

    Muchas gracias!!!!

  30. trueno1964 está desconectado *Novato Avanzado*
    Fecha de ingreso
    13 oct, 08
    Mensajes
    74

    Re: España-Todos los partidos del campeon-Mundial SudAfrica2010

    esto es demasiado bueno viva españa

Página 1 de 4 123 ... ÚltimoÚltimo

Temas similares

  1. Mundial 2010 España Suiza
    Por clebron en el foro Moviez Peliculas
    Respuestas: 12
    Último mensaje: 05/08/2012, 18:38
  2. Mundial sudafrica 2010: Chile - España 25/06/10 [DVBrip][Castellano]
    Por desfalko en el foro Peliculas en HD-DVD, BluRay, HDTV Gratis
    Respuestas: 48
    Último mensaje: 08/04/2012, 16:40
  3. Descarga todos los partidos de Sudafrica 2010
    Por LUMPIER en el foro Peliculas en HD-DVD, BluRay, HDTV Gratis
    Respuestas: 13
    Último mensaje: 20/12/2010, 15:21
  4. Descarga todos los partidos de Sudafrica 2010
    Por LUMPIER en el foro Descargar Series de TV Gratis
    Respuestas: 6
    Último mensaje: 21/11/2010, 15:07
  5. tvuplayer mira los partidos del mundial en vivo y en españo
    Por rudairo en el foro Appz Programas Gratis
    Respuestas: 1
    Último mensaje: 30/06/2010, 03:53

Etiquetas para este tema