Resultados 1 al 25 de 25
Like Tree5Likes
  • 5 Post By biones_2312

El amante [DVDRip Erotico Castellano 1992]


Descargar El amante [DVDRip Erotico Castellano 1992] Gratis 1 link Full El amante [DVDRip Erotico Castellano 1992] por Mediafire con Crack, Serial, KeyGen Full Torrent

  1. biones_2312 está desconectado *Master*
    Fecha de ingreso
    24 nov, 08
    Mensajes
    939

    El amante [DVDRip Erotico Castellano 1992]





    Información del archivo en el servidor
    Partes: 2
    Servidor: US & FJ
    Tamaño: 895 MB

    Sinopsis
    Durante los años 20, en un barco que atraviesa el río Mekong, una
    adolescente francesa conoce a un importante diplomático de la
    Indochina colonial y queda fascinada por su riqueza y su
    elegancia. Entre ellos nace un amor obsesivo y
    desenfrenado, pero la hostilidad familiar y
    las diferencias culturales impedirán que
    se prosiga esta pasión carnal.

    Caps





    Ficha Tenica

    Título: El amante
    Título original: L'amant
    Dirección: Jean-Jacques Annaud
    País: Francia, El Reino Unido, Vietnam
    Año: 1992
    Duración: 115 min.
    Género: Drama,Erótico,
    Romance, Biográfico.
    Reparto: Jane March, Tony Leung Ka Fai,
    Frédérique Meininger, Arnaud Giovaninetti,
    Melvil Poupaud, Lisa Faulkner, Xiem Mang,
    Philippe Le Dem, Ann Schaufuss, Quach Van
    An, Tania Torrens, Raymonde Heudeline,
    Yvonne Wingerter, Do Minh Vien, Hélène
    Patarot, Jeanne Moreau, Frédéric
    Auburtin, Alido H. Gaudencio, Vu Dinh Thi,
    Truong Thu, Nguyen Thi Cam Thuy,
    Lu Van Trang, Vu Kim Trong
    Distribuidora: Warner Bros.

    Datos de ripeo

    General
    Complete name : files/O2312ELAMANTECASTELLANO.avi
    Format : AVI
    Format/Info : Audio Video Interleave
    File size : 895 MiB
    Duration : 1h 50mn
    Overall bit rate : 1 131 Kbps

    Video
    ID : 0
    Format : MPEG-4 Visual
    Format settings, BVOP : No
    Format settings, QPel : No
    Format settings, GMC : No warppoints
    Format settings, Matrix : Default (H.263)
    Codec ID : DX50
    Codec ID/Hint : DivX 5
    Duration : 1h 50mn
    Bit rate : 990 Kbps
    Width : 704 pixels
    Height : 368 pixels
    Display aspect ratio : 1.913
    Frame rate : 25.000 fps
    Color space : YUV
    Chroma subsampling : 4:2:0
    Bit depth : 8 bits
    Scan type : Progressive
    Compression mode : Lossy
    Bits/(Pixel*Frame) : 0.153
    Stream size : 783 MiB (88%)
    Writing library : DivX 5.2.1 (WaffleDay) (UTC 2004-09-08)

    Audio
    ID : 1
    Format : MPEG Audio
    Format version : Version 1
    Format profile : Layer 3
    Mode : Joint stereo
    Mode extension : MS Stereo
    Codec ID : 55
    Codec ID/Hint : MP3
    Duration : 1h 50mn
    Bit rate mode : Constant
    Bit rate : 128 Kbps
    Channel(s) : 2 channels
    Sampling rate : 48.0 KHz
    Compression mode : Lossy
    Stream size : 101 MiB (11%)
    Alignment : Split accross interleaves
    Interleave, duration : 24 ms (0.60 video frame)

    Descarga
    US & FJ
    Contenido Oculto Este post contiene información oculta, debes contestar el post o hacer click en el botón 'Gracias' para ver el contenido.


    Nota: Si encuentras un link caído avísame para volverlo a subir



  2. jurgen80 está desconectado *Novato reciente*
    Fecha de ingreso
    06 dic, 08
    Mensajes
    14

    Re: El amante [DVDRip Erotico Castellano 1992]

    gracias por el aporte

  3. Ferro_35 está desconectado *User Avanzado*
    Fecha de ingreso
    08 ene, 11
    Mensajes
    159

    Re: El amante [DVDRip Erotico Castellano 1992]

    Muchas gracias

  4. lalechej está desconectado *Novato Avanzado*
    Fecha de ingreso
    06 feb, 11
    Mensajes
    64

    Re: El amante [DVDRip Erotico Castellano 1992]

    de puta madre

  5. lalechej está desconectado *Novato Avanzado*
    Fecha de ingreso
    06 feb, 11
    Mensajes
    64

    Re: El amante [DVDRip Erotico Castellano 1992]

    debutennnnnnnnnnnnnn tio

  6. jkleoncito está desconectado *Novato reciente*
    Fecha de ingreso
    10 oct, 10
    Mensajes
    22

    Re: El amante [DVDRip Erotico Castellano 1992]

    Cita Iniciado por biones_2312 Ver mensaje




    Información del archivo en el servidor
    Partes: 2
    Servidor: US & FJ
    Tamaño: 895 MB

    Sinopsis
    Durante los años 20, en un barco que atraviesa el río Mekong, una
    adolescente francesa conoce a un importante diplomático de la
    Indochina colonial y queda fascinada por su riqueza y su
    elegancia. Entre ellos nace un amor obsesivo y
    desenfrenado, pero la hostilidad familiar y
    las diferencias culturales impedirán que
    se prosiga esta pasión carnal.

    Caps





    Ficha Tenica

    Título: El amante
    Título original: L'amant
    Dirección: Jean-Jacques Annaud
    País: Francia, El Reino Unido, Vietnam
    Año: 1992
    Duración: 115 min.
    Género: Drama,Erótico,
    Romance, Biográfico.
    Reparto: Jane March, Tony Leung Ka Fai,
    Frédérique Meininger, Arnaud Giovaninetti,
    Melvil Poupaud, Lisa Faulkner, Xiem Mang,
    Philippe Le Dem, Ann Schaufuss, Quach Van
    An, Tania Torrens, Raymonde Heudeline,
    Yvonne Wingerter, Do Minh Vien, Hélène
    Patarot, Jeanne Moreau, Frédéric
    Auburtin, Alido H. Gaudencio, Vu Dinh Thi,
    Truong Thu, Nguyen Thi Cam Thuy,
    Lu Van Trang, Vu Kim Trong
    Distribuidora: Warner Bros.

    Datos de ripeo

    General
    Complete name : files/O2312ELAMANTECASTELLANO.avi
    Format : AVI
    Format/Info : Audio Video Interleave
    File size : 895 MiB
    Duration : 1h 50mn
    Overall bit rate : 1 131 Kbps

    Video
    ID : 0
    Format : MPEG-4 Visual
    Format settings, BVOP : No
    Format settings, QPel : No
    Format settings, GMC : No warppoints
    Format settings, Matrix : Default (H.263)
    Codec ID : DX50
    Codec ID/Hint : DivX 5
    Duration : 1h 50mn
    Bit rate : 990 Kbps
    Width : 704 pixels
    Height : 368 pixels
    Display aspect ratio : 1.913
    Frame rate : 25.000 fps
    Color space : YUV
    Chroma subsampling : 4:2:0
    Bit depth : 8 bits
    Scan type : Progressive
    Compression mode : Lossy
    Bits/(Pixel*Frame) : 0.153
    Stream size : 783 MiB (88%)
    Writing library : DivX 5.2.1 (WaffleDay) (UTC 2004-09-08)

    Audio
    ID : 1
    Format : MPEG Audio
    Format version : Version 1
    Format profile : Layer 3
    Mode : Joint stereo
    Mode extension : MS Stereo
    Codec ID : 55
    Codec ID/Hint : MP3
    Duration : 1h 50mn
    Bit rate mode : Constant
    Bit rate : 128 Kbps
    Channel(s) : 2 channels
    Sampling rate : 48.0 KHz
    Compression mode : Lossy
    Stream size : 101 MiB (11%)
    Alignment : Split accross interleaves
    Interleave, duration : 24 ms (0.60 video frame)

    Descarga
    US & FJ
    Contenido Oculto Este post contiene información oculta, debes contestar el post o hacer click en el botón 'Gracias' para ver el contenido.


    Nota: Si encuentras un link caído avísame para volverlo a subir
    graciasssssssssssssss

  7. tonios69 está desconectado *Novato Avanzado*
    Fecha de ingreso
    15 mar, 12
    Mensajes
    52

    Re: El amante [DVDRip Erotico Castellano 1992]

    gracias la llevaba buscando hace muchisimo tiempo.

  8. tonios69 está desconectado *Novato Avanzado*
    Fecha de ingreso
    15 mar, 12
    Mensajes
    52

    Re: El amante [DVDRip Erotico Castellano 1992]

    pues mi gozo en un pozo , los links estan caidos , podrias resubirlo de nuevo? gracias.

  9. bektor2003 está desconectado *Novato reciente*
    Fecha de ingreso
    21 mar, 12
    Mensajes
    2

    Re: El amante [DVDRip Erotico Castellano 1992]

    muy buena pelicula erotica gracias

  10. ziryabalandalus está desconectado *Novato Avanzado*
    Fecha de ingreso
    23 dic, 10
    Mensajes
    47

    Re: El amante [DVDRip Erotico Castellano 1992]

    gracias por el aporte

  11. djmole está desconectado *Novato reciente*
    Fecha de ingreso
    08 ene, 10
    Mensajes
    24

    Re: El amante [DVDRip Erotico Castellano 1992]

    Graciassssssssssssssssssssssssssssssssssss

  12. jutamcha está desconectado *Experto*
    Fecha de ingreso
    25 sep, 09
    Mensajes
    238

    Re: El amante [DVDRip Erotico Castellano 1992]

    muchas gracias por el aporte

  13. 2201oscar está desconectado *Novato reciente*
    Fecha de ingreso
    27 abr, 12
    Mensajes
    2

    Re: El amante [DVDRip Erotico Castellano 1992]

    la estaba buscando.. gracias

  14. 2201oscar está desconectado *Novato reciente*
    Fecha de ingreso
    27 abr, 12
    Mensajes
    2

    Re: El amante [DVDRip Erotico Castellano 1992]

    lastima... links caidos.

  15. encaza1 está desconectado *Novato Avanzado*
    Fecha de ingreso
    04 oct, 10
    Mensajes
    96

    Re: El amante [DVDRip Erotico Castellano 1992]

    graciassssssss

  16. xavilink está desconectado *Novato reciente*
    Fecha de ingreso
    31 ene, 09
    Mensajes
    20

    Re: El amante [DVDRip Erotico Castellano 1992]

    gracias por tod


    Cita Iniciado por biones_2312 Ver mensaje




    Información del archivo en el servidor
    Partes: 2
    Servidor: US & FJ
    Tamaño: 895 MB

    Sinopsis
    Durante los años 20, en un barco que atraviesa el río Mekong, una
    adolescente francesa conoce a un importante diplomático de la
    Indochina colonial y queda fascinada por su riqueza y su
    elegancia. Entre ellos nace un amor obsesivo y
    desenfrenado, pero la hostilidad familiar y
    las diferencias culturales impedirán que
    se prosiga esta pasión carnal.

    Caps





    Ficha Tenica

    Título: El amante
    Título original: L'amant
    Dirección: Jean-Jacques Annaud
    País: Francia, El Reino Unido, Vietnam
    Año: 1992
    Duración: 115 min.
    Género: Drama,Erótico,
    Romance, Biográfico.
    Reparto: Jane March, Tony Leung Ka Fai,
    Frédérique Meininger, Arnaud Giovaninetti,
    Melvil Poupaud, Lisa Faulkner, Xiem Mang,
    Philippe Le Dem, Ann Schaufuss, Quach Van
    An, Tania Torrens, Raymonde Heudeline,
    Yvonne Wingerter, Do Minh Vien, Hélène
    Patarot, Jeanne Moreau, Frédéric
    Auburtin, Alido H. Gaudencio, Vu Dinh Thi,
    Truong Thu, Nguyen Thi Cam Thuy,
    Lu Van Trang, Vu Kim Trong
    Distribuidora: Warner Bros.

    Datos de ripeo

    General
    Complete name : files/O2312ELAMANTECASTELLANO.avi
    Format : AVI
    Format/Info : Audio Video Interleave
    File size : 895 MiB
    Duration : 1h 50mn
    Overall bit rate : 1 131 Kbps

    Video
    ID : 0
    Format : MPEG-4 Visual
    Format settings, BVOP : No
    Format settings, QPel : No
    Format settings, GMC : No warppoints
    Format settings, Matrix : Default (H.263)
    Codec ID : DX50
    Codec ID/Hint : DivX 5
    Duration : 1h 50mn
    Bit rate : 990 Kbps
    Width : 704 pixels
    Height : 368 pixels
    Display aspect ratio : 1.913
    Frame rate : 25.000 fps
    Color space : YUV
    Chroma subsampling : 4:2:0
    Bit depth : 8 bits
    Scan type : Progressive
    Compression mode : Lossy
    Bits/(Pixel*Frame) : 0.153
    Stream size : 783 MiB (88%)
    Writing library : DivX 5.2.1 (WaffleDay) (UTC 2004-09-08)

    Audio
    ID : 1
    Format : MPEG Audio
    Format version : Version 1
    Format profile : Layer 3
    Mode : Joint stereo
    Mode extension : MS Stereo
    Codec ID : 55
    Codec ID/Hint : MP3
    Duration : 1h 50mn
    Bit rate mode : Constant
    Bit rate : 128 Kbps
    Channel(s) : 2 channels
    Sampling rate : 48.0 KHz
    Compression mode : Lossy
    Stream size : 101 MiB (11%)
    Alignment : Split accross interleaves
    Interleave, duration : 24 ms (0.60 video frame)

    Descarga
    US & FJ
    hidden content may not be quoted

    Nota: Si encuentras un link caído avísame para volverlo a subir

  17. huevotron está desconectado *Novato Avanzado*
    Fecha de ingreso
    07 dic, 09
    Mensajes
    32

    Re: El amante [DVDRip Erotico Castellano 1992]

    graciassssssssssssss

  18. dimaro76 está desconectado *Novato reciente*
    Fecha de ingreso
    10 jul, 12
    Mensajes
    1

    Re: El amante [DVDRip Erotico Castellano 1992]

    Graciass, cómo me la bajo!?

  19. celis31 está desconectado *Novato reciente*
    Fecha de ingreso
    27 jul, 11
    Mensajes
    28

    Re: El amante [DVDRip Erotico Castellano 1992]

    thanks...sddadasa

  20. porbruto está desconectado *Novato reciente*
    Fecha de ingreso
    09 jul, 08
    Mensajes
    9

    Re: El amante [DVDRip Erotico Castellano 1992]

    gracias!!!!!!

  21. marc.gaspa está desconectado *User Pro*
    Fecha de ingreso
    03 ene, 11
    Mensajes
    477

    Re: El amante [DVDRip Erotico Castellano 1992]

    graciasssssssssss

  22. skullmonkey21 está desconectado *Novato reciente*
    Fecha de ingreso
    08 mar, 12
    Mensajes
    10

    Re: El amante [DVDRip Erotico Castellano 1992]

    Gracias por compartir

  23. charrua está desconectado *Novato Avanzado*
    Fecha de ingreso
    01 jun, 08
    Mensajes
    90

    Re: El amante [DVDRip Erotico Castellano 1992]

    Tankius veri mucho

  24. pepeillo001 está desconectado *Novato reciente*
    Fecha de ingreso
    12 dic, 09
    Mensajes
    19

    Re: El amante [DVDRip Erotico Castellano 1992]

    Gracias...

  25. suny4523 está desconectado *Novato reciente*
    Fecha de ingreso
    25 nov, 09
    Mensajes
    24

    Re: El amante [DVDRip Erotico Castellano 1992]

    Graciass buenos aportes

Temas similares

  1. Link caidos
    Por atomo28 en el foro Peliculas DVDRip en Castellano
    Respuestas: 46
    Último mensaje: 30/11/2013, 13:57
  2. Espiando a Marina [DVDRip][Thriller Erótico][1992]
    Por atomo28 en el foro Peliculas DVDRip en Castellano
    Respuestas: 7
    Último mensaje: 31/07/2012, 01:52
  3. El Cuerpo Del Delito (1992)[DVDRip][Thriller/Erotico][Espanol][FLS-UL-WU] 1Link
    Por tyuk001 en el foro Peliculas DVDRip en Castellano
    Respuestas: 2
    Último mensaje: 24/05/2012, 15:30
  4. Espiando a Marina [DVDRip Thriller Erótico Español 1992]
    Por fitipaldiuno en el foro Peliculas XXX Completas Gratis
    Respuestas: 0
    Último mensaje: 29/11/2011, 14:50
  5. Crimenes de Amor [DVDRip Thriller Erotico Castellano 1992]
    Por Carlosmb1 en el foro Peliculas DVDRip en Castellano
    Respuestas: 0
    Último mensaje: 27/11/2011, 10:35