Resultados 1 al 12 de 12
Like Tree1Likes
  • 1 Post By adisdsf

Top 100 Trance and Techno Party Songs of All Time 4CD


Descargar Top 100 Trance and Techno Party Songs of All Time 4CD Gratis 1 link Full Top 100 Trance and Techno Party Songs of All Time 4CD por Mediafire con Crack, Serial, KeyGen Full Torrent

  1. adisdsf está desconectado *Novato reciente*
    Fecha de ingreso
    19 feb, 11
    Mensajes
    11

    Top 100 Trance and Techno Party Songs of All Time 4CD




    VA.Top.100.Trance.and.Techno.Party.Songs.of.All.Ti me.4CD.s.iNT








    Código:
    Audio
    Format                           : MPEG Audio
    Format version                   : Version 1
    Format profile                   : Layer 3
    Format settings, Mode            : Joint stereo / MS Stereo
    Bit rate mode                    : Variable
    Bit rate                         : 192 Kbps
    Channel(s)                       : 2 channels
    Sampling rate                    : 44.1 KHz
    Resolution                       : 16 bits
    Stream size                      : 15.9 MiB (100%)
    Writing library                  : LAME3.91
    
    
    
    400 tracks in playlist, average track length: 4:13
    Playlist length: 28 hours 13 minutes 8 seconds


    Código:
             1. Alice Deejay - Better off alone (4:11)
             2. Antiloop - Believe (3:27)
             3. Antiloop - Only U (3:18)
             4. Armand Van Helden - My My My 2006 (Stonebridge Remix) (8:40)
             5. ATB - 9pm (Till I Come) (3:18)
             6. ATB - Ayla (4:09)
             7. ATC - Around The World (3:38)
             8. Banana Inc. - Club Kink (2:24)
             9. Barcode Brothers - Flute (4:44)
             10. Base Attack - Techno Rocker (3:31)
             11. BassHunter - Boten Anna (5:17)
             12. BassHunter - Russia Privjet (4:07)
             13. Beatfreakz - Somebodys Watching Me (Hi Tack Remix) (2:48)
             14. Benny Benassi - Satisfaction (6:29)
             15. Benny Benassi Bross - Every Single Day (4:44)
             16. Bob Marley vs. Funkstar De Lux - Sun is Shining (3:54)
             17. Bob Sinclar - World Hold On (3:17)
             18. Booty Luv - Boogie 2night (3:14)
             19. Creambase - Fiddle 2003 (3:32)
             20. Dance 2 Trance - Power Of American Natives ´98 (3:29)
             21. Dance Nation - Move Your Love (UK Radio Edit) (2:50)
             22. Dancing DJs vs Roxette - Fading Like A Flower (3:04)
             23. Danzel vs Dj F.R.A.N.K. - My Arms Keep Missing you (3:05)
             24. Darude - Feel The Beat (4:17)
             25. Darude - Sandstorm (3:45)
             26. David Guetta vs The Egg -Love Dont Let Me Go (walking away) (3:10)
             27. Dj Aligator Project - The Whistle Song (3:42)
             28. DJ Antoine - Arabian Adventure 2 (4:05)
             29. Dj Dream - Hoppesangen (2:57)
             30. Dj jean - The Launch (3:10)
             31. Dj Jose vs G Spott - House of Justice (3:35)
             32. Dj Jose vs G Spott - Wrong is Right (3:22)
             33. DJ Mangoo - Eurodancer (3:15)
             34. Dj Mystik - China (4:10)
             35. Dj Sammy and Yanou - Heaven (2:04)
             36. Dj Satomi - Castle In The Sky (3:14)
             37. Dj Satomi - Waves (3:37)
             38. DJ Sona - Xplosion (6:13)
             39. DJ Tiesto - Theme From Norefjell (4:32)
             40. Dra Pĺ - Flřytesangen (3:29)
             41. Drunken monkey - Calabria (2:37)
             42. East Clubbers - Beat Is Coming (4:34)
             43. East Clubbers - ***tasy (3:59)
             44. Eric Prydz - Call on Me (7:33)
             45. Estima - Hitmans Paradise (3:58)
             46. Faithless - Insomnia (3:34)
             47. Fedde Le Grand - Put Your Hands Up for detroit (6:06)
             48. French Affair - ***y (3:48)
             49. Galaxee - Lullaby (5:08)
             50. Gigi D'Agostino - Baci Abbracci (4:49)
             51. Gigi D'Agostino - L´Amour Toujours (3:51)
             52. Gigi D'Agostino - The Riddle (4:45)
             53. Gigi D'Agostino - you spin me round (4:17)
             54. Global Deejays - Get Up 2007 (7:22)
             55. Global Deejays Vs Benny Benassi - San Fransisco Dreaming (9:09)
             56. Hi Tack - Say Say Say (waiting 4 u) (3:59)
             57. Il Caesar - Calma (2:59)
             58. Interphase - Dr Feelgood 2003 (5:50)
             59. John Parr vs Tommyknockers - New Horizon (2:34)
             60. Junior Jack - Dare Me vs Stupidisco (6:56)
             61. Leszek Piesek - Hau Hau (4:08)
             62. Lightforce - Eternity (7:00)
             63. Loleatta Holloway - Love Sensation 06 (2:59)
             64. Mason Vs Princess Superstar - Perfect Exceeder (3:32)
             65. Master Blaster - Hypnotic Tango (2:54)
             66. Mauro Picotto - Komodo (3:23)
             67. Mauro Picotto - Proximus (3:31)
             68. Meck feat Leo Sayer - Thunder In My Heart Again (3:01)
             69. Michael Gray - Weekend (3:13)
             70. Milk and Sugar - What is love (7:51)
             71. Mylo feat Miami Sound - Machine Doctor Pressure (3:25)
             72. Pakito - Living on video (3:20)
             73. Paul van Dyk - For an Angel (3:54)
             74. Prodigy - Smack My Bitch Up (5:42)
             75. Pulsedriver - The Whistle Song (3:10)
             76. Rocco - Drop The Bass (3:15)
             77. Roger sanchez - Another Chance (3:27)
             78. Rollergirl - Superstar (3:38)
             79. Salt 'n Pepa - Push It (DJ Tonka Remix) (3:42)
             80. Sander Kleinenberg - This is not Miami (7:39)
             81. Sash! - Ecuador (3:34)
             82. Scooter - Aiii Shot The Dj (3:31)
             83. Scooter - One (Always Hardcore) (5:30)
             84. Sharam - Party All The Time (10:37)
             85. SkyMarshall Arts - From Paris to Berlin Redux (4:08)
             86. Snap - Rhythm is a Dancer (3:09)
             87. Sonique - It feels so Good (3:47)
             88. Special D - Come with me (3:51)
             89. Steve Angello - Davali (5:52)
             90. Studio B - I see Girls (2:58)
             91. Sunblock feat Robin Beck - First Time (2:38)
             92. Sunblock ft. sandy - Baby Baby (3:22)
             93. Sunloverz - Shine On (Heiko & Maikos Gute Laune Remix) (6:29)
             94. Sunset Strippers - Falling Stars (3:17)
             95. Supermode - Tell Me Why (2:50)
             96. Team deep - Morning light (4:15)
             97. The Planets - Contradanza (Almighty Radio Edit) (4:11)
             98. Till West & DJ Delicious - Same Man (Radio Edit) (3:32)
             99. United Nations - Out of touch (2:46)
             100. Zombie Nation - Kernkraft 400 (3:28)
             101. 2 Brothers On The 4th Floor - Living In Cyberspace (3:40)
             102. 2ned Boy - Another Story Come (3:26)
             103. 2pm - Tetris (3:02)
             104. Alex C - Du Hast Den Schonsten Arsch Der Welt (basshunter mix) (3:42)
             105. Angello and Ingrosso - umbrella (3:36)
             106. Asian Mon**** - Kiss Me (3:05)
             107. Axwell - Feel The Vibe (6:29)
             108. Axwell feat. Max'C - I Found You (2:52)
             109. Axwell ft Steve Edwards - Watch The Sunrise (8:02)
             110. Banana Inc - Monkey Island (Club Mix) (5:29)
             111. Baracuda - Ass Up (Banana Inc. Remix) (3:06)
             112. Barthezz - On the Move (3:33)
             113. Benassi Bros Feat Sandy - Illusion (3:33)
             114. Bob Boomerang ft TI - Eyes Will See (4:46)
             115. Bodyrockers - I Like The Way You Move (6:18)
             116. Bodyrox ft. Luciana - Yeah Yeah (2:36)
             117. Bomfunk MC's - Freestyler (5:05)
             118. Booty Luv - Dont Mess With My Man (2:53)
             119. Booty Luv - Some Kinda Rush (Dub Mix) (3:46)
             120. Breeze vs Lost Witness - Rise Again (short version) (3:58)
             121. Brooklyn Bounce - Bass, Beats and Melody (3:41)
             122. Brothers - Dieci Cento Mille (4:55)
             123. Calvin Harris - Acceptable In The 80's (5:33)
             124. Cascada - Everytime We Touch (3:18)
             125. Cascada - Magic Summer Night (3:26)
             126. Cosmic Gate - Exploration of Space (8:16)
             127. Culture Beat - Mr Vain (3:28)
             128. Da Hool - Meet Her at the Loveparade (3:32)
             129. Danny saucedo - Tokyo (3:17)
             130. Dave Mccullen - Rave Heaven (3:04)
             131. David Guetta feat. Chris Willis - Love Is Gone (3:21)
             132. Digital Bitches ft Headline - heaven (3:35)
             133. Dj Gillies - Kiss Kiss (3:35)
             134. Dj Kawamba - People of Aruba (3:11)
             135. DJ Panda - It's a dream (4:33)
             136. DJ Porny - Me So Horny (3:08)
             137. DJ Quicksilver - Belissima (3:51)
             138. Dj Sona - House Baby (3:31)
             139. Dj Tiesto - Adagio For Strings (7:23)
             140. Dj Tiesto - He's a Pirate (4:05)
             141. Dj Whisky - Celtic Celebration (4:59)
             142. East Clubbers - Russian (5:43)
             143. East Clubbers - To The Moon And Back (3:21)
             144. Energy 52 - Cafe Del Mar (3:18)
             145. Eric Prydz & Steve Angello - Woz Not Woz (4:40)
             146. Eric Prydz vs Floyd - Proper Education (3:18)
             147. Fedde le Grand - Put your Hands up for Detroit (2:28)
             148. Freddy Fader meets Locana - Bom Bom (Suenan) (3:08)
             149. Freddy Hawk - Like This (Club Mix) (4:52)
             150. Groove Coverage - 7 Years and 50 days (3:45)
             151. Hardrox - Feel The Hard Rock (Up To No Good) (3:11)
             152. Hed Kandi - Last night a DJ (6:00)
             153. Hi Tack - Lets dance (3:05)
             154. Ida Corr vs Fedde Le Grand - Let Me Think About It (2:31)
             155. Kash Vs Inxs - Dream On Black Girl (Radio Edit) (3:18)
             156. Kate Ryan - Desenchantee (3:33)
             157. Kate Ryan - Voyage Voyage (3:43)
             158. Kim Leoni - Again (original radio mix) (3:21)
             159. Krid P. - Bag Pipes (3:25)
             160. Lacuna - Celebrate The Summer (radio mix) (3:43)
             161. Lasgo - Something (3:42)
             162. Lucky Twice - I'm so Lucky Lucky (3:24)
             163. Mark Ronson - Stop Me (Kissy Sell Out Remix) (4:19)
             164. Mauro Picotto - Like This Like That (3:43)
             165. Michael Mind ft Manfred Manns Earth Band - Blinded By The Light (2:47)
             166. Nikita and Lance - Can u See (conways radio mix) (2:54)
             167. OptimizE - Tais-Toi (Summer Vacation Edit) (3:27)
             168. Paffendorf - Its not Over (3:18)
             169. Paffendorf - Lalala Girl (2:41)
             170. Pakito - Are You Ready (6:03)
             171. Pakito - You Wanna Rock (4:16)
             172. Paul Van Dyke - Nothing But You (Club Mix) (8:26)
             173. Pimp Code - You Know (2:46)
             174. Pulsedriver - Cambodia (3:49)
             175. Rave Allstars - Hardcore Vibes (radio edit) (3:14)
             176. Robert Miles - Children (3:51)
             177. Rocco - Everybody (3:22)
             178. RockeFeller - Do It 2nite (Hi Tack Mix) (4:01)
             179. Safri Duo - Played A-Live (The Bongo Song) (3:20)
             180. Samim - Heater (3:01)
             181. Sasha Dith - Russian Girls (2:53)
             182. Scooter - Behind the Cow (radio edit) (3:38)
             183. Scooter - Maria (I Like it Loud) (3:39)
             184. September - Cry for You (radio version) (3:28)
             185. Spektrum - Kinda New (Dirty South Mix) (6:44)
             186. Starting Rock feat. Diva Avari - Dont Go (3:29)
             187. Stian K - Be Alive (4:08)
             188. The Attic - Catch Me When I Fall For You (3:29)
             189. The Bomb feat Seanfinn - Skynight (3:15)
             190. The Hitmen - Like I Love You (3:27)
             191. The Springlove - Porque Te Vas (2:26)
             192. Timbaland - The Way I Are (Stian K & Dj excellence rmx) (3:47)
             193. Topmodelz - L'Esperanza 2007 (Rework Radio Edit) (3:08)
             194. Tune Up - Ravers fantasy (3:29)
             195. Tune Up - Start The Game Again (6:06)
             196. Tune Up Vs Italobrothers - Colours Of The Rainbow (5:20)
             197. Vinylshakerz Love is a Fragile Thing (3:29)
             198. Vip - Lille Anders (3:10)
             199. Yves Larock - Rise Up (radio edit) (4:00)
             200. Yves Larock - Zookey (Lift Your Leg Up) (8:22)
             201. Airbeat Project - Airbeat One (4:47)
             202. Alanta - Mercy (Red Rhythm radio edit) (3:41)
             203. Alex Gaudino feat. Shena - Watch Out (2:58)
             204. Armand Van Helden - You don't Know Me (7:21)
             205. Armin van Buuren ft Jan Vayne - Serenity (2:59)
             206. Arno Cost & Arias - Magenta (3:37)
             207. ATB - You're Not Alone (Airplay Mix) (3:30)
             208. Backside Artists - Freed from Desire (2:52)
             209. Barcode Brothers - Dooh Dooh (Radio Edit) (3:54)
             210. Barthezz - Infected (3:47)
             211. Basment Jaxx - Where's your Head At (4:43)
             212. BassHunter - Welcome to Rainbow (5:17)
             213. Bennasi Bros - Make Me Feel (5:30)
             214. Benny Benassi - Love Is Gonna Save Us (5:05)
             215. Benny Benassi - Turn me up (5:49)
             216. Benny Benassi Feat Sandy - Illusion (Spychool Mix) (5:34)
             217. Bob Sinclar and Axwell feat. Ron Carroll - What a Wonderful World (3:07)
             218. Carlos - The Silmarillia 2007 Remixes (4 Strings Radio Edit) (3:19)
             219. Chanel - My Life (M-Factor Dub Mix) (6:00)
             220. Corona - Rhythm Of The Night (5:27)
             221. Daft Punk - Harder Better Faster Stronger (Alive 2007) (3:31)
             222. Dallas Superstars - Fine Day (radio edit) (3:48)
             223. Daniel Hoppe feat. Paul King - Love & Pride 2005 (3:26)
             224. Danzel - Jump (3:12)
             225. David McCullen - I Just Want To Call You My Bitch (3:53)
             226. DJ Antoine - This Time (Klaas Remix) (6:22)
             227. DJ Antoine - Work (2:13)
             228. Dj Jurgen - Higher and Higher (3:54)
             229. DJ Ozi - Juicy Pen (3:40)
             230. Dj Peran - Wanna Be Free (3:28)
             231. Dj Quicksilver - Ameno (3:29)
             232. Dj Sneak - Fix My Sink (3:25)
             233. Dj Tiesto - Elements Of Life (8:25)
             234. Dj Tiesto - Lethal Industry (2:45)
             235. DJ Tiesto - Summer Jam (Gigi D'Agostino Remix) (5:20)
             236. Driftwood Djteam - Freeloader (3:25)
             237. Earth Wind and Fire - September 99 (3:41)
             238. East Clubbers - Equal I Love (4:08)
             239. East Clubbers - Make Me Live (Max Farenthide Remix) (5:28)
             240. Eddy Wata - I Love My People (3:31)
             241. Erick Prydz - Pjanoo (original mix) (4:59)
             242. Fat Boy Slim - Apache (2:46)
             243. FKNJahala - Why [Aly & FILA Remix] (3:08)
             244. Fonzerelli - Moonlight Party (DJ Tiesto Remix) (3:25)
             245. Fragma - Toca Me (inpetto 2008 edit) (3:28)
             246. Freaks - The Creeps (you re giving me) (vandalism remix) (3:06)
             247. Freemasons - Uninvited (Radio Edit) (3:02)
             248. Freemasons feat. Katherine Ellis - When You Touch Me (3:09)
             249. Gareth Emery - More Than Anything (Stoneface & Terminal Remix) (4:53)
             250. Genial - South Beach (4:00)
             251. Gigi D'Agostino - La Passion (3:30)
             252. Global Deejays - What a Feeling (5:28)
             253. Gregor Salto ft Red - Looking Good (3:10)
             254. Guru Josh Project - Infinit (klass vocal edit) (3:11)
             255. Hi-Tack - Silence (4:56)
             256. House Of Pain - Jump Around (Micky Slim Remix) (6:14)
             257. Ian Oliver - Bucovina (Markus Gardeweg radio edit) (3:16)
             258. Icebird - Eskimo (3:19)
             259. Irvin feat. Emilie - Spektrum (4:39)
             260. J - I Feel Divine [Tall Paul Mix] (7:37)
             261. Justice - Genesis (3:54)
             262. Kate Ryan - Ella Elle L'a (3:04)
             263. Kate Ryan - Scream For More (7:42)
             264. Klubbheads - Klubhoppin (5:04)
             265. Lichtenfels - Sounds Like A Melody (Pulsedriver Radio Edit) (3:56)
             266. Luvstruck - Southside Spinners (2:48)
             267. Mario Piu - Communication (3:34)
             268. Mark van Daele and Enrico - Water Verve (2:36)
             269. Mattara - Send The Message (yeke yeke) (3:37)
             270. Mauro Picotto - Evribadi (Fonzerelli Radio Edit) (3:03)
             271. Musikk - Summer Lovin (Mr Bronkz Remix) (4:04)
             272. Olav Basoki - Waterman (3:09)
             273. Pakito - Funky Groove (5:44)
             274. Paul Johnson - Get Get Down (laidback luke remix) (3:58)
             275. Peran Van Dijk - Good Time (Radio Edit) (3:37)
             276. Pizza Man - I Don't Need This Shit (3:49)
             277. R.I.O. - Shine One Me (3:22)
             278. Robin S - You Got To Show Me Love (Club Edit) (4:53)
             279. Rockefeller - Do It 2nite (Olav Basoski Remix) (8:15)
             280. Roger Sanchez - Turn on the Music (4:02)
             281. Royksopp - Remind Me (Someone Else's Radio Remix) (4:05)
             282. Rui Da Silva -Touch Me [Original 12 Mix] (3:25)
             283. September - Looking For Love (3:25)
             284. Shana Vanguarde - Gimme! Gimme! Gimme! (Royal Gigolos Club Mix) (5:51)
             285. Shapeshifters - Lolas Theme (4:28)
             286. Spit - Falling (Radio Vocal Edit) (4:03)
             287. Spoonface - Here For You (Rooney And Paul Sanders Original Radio) (3:59)
             288. Stardust - Music Sounds Better With You (4:21)
             289. The Chemical Brothers - Galvanize (4:29)
             290. The Disco Boys - I Came For You (3:44)
             291. The Drill - The Drill (3:02)
             292. Theree Drives On A Vinyl - Greece 2000 (3:39)
             293. Tiesto - Adagio 4 Strings (Wrongun Remix) (7:55)
             294. Tom Snare - Philosophy (Original Mix) (3:23)
             295. Ttom Novy - Your Body (3:32)
             296. United Nations - You And Me (3:14)
             297. Who Da Funk feat. Jessica Eve - Shiny Disco Balls (Club Mix) (4:04)
             298. Wiley - Wearing My Rolex (2:53)
             299. Wolfgang - Vendetta Del Disco (3:49)
             300. Yahel and Eyal Barkan - Voyage (8:52)
             301. Agnes - Release Me (2:58)
             302. Alex Gaudino & Jason Rooney - I Love Rock'n'roll (3:15)
             303. Alp vs Outwork - Fiesta Elektronica (3:38)
             304. Alphabeat - Fascination (Bimbo Jones Mix) (6:00)
             305. Anything But Monday - Bump (Control-S Club Mix) (7:42)
             306. Armand Van Helden - Je Taime (3:20)
             307. Asle - Golden Sun (Seamus Haji & Paul Emmanuel Rmx) (8:17)
             308. Axwell and Sebastian Ingrosso - Its true (3:06)
             309. Barry White - Let The Music Play (Funkstars Club Deluxe Edit) (3:00)
             310. Basic Element feat D-Flex - Touch You Right Now (3:09)
             311. Benni Benassi - Sweet Dreams (3:29)
             312. Bingo Players Vs Chocolate Puma - Touch Me (3:44)
             313. Bob Sinclair feat. Sugarhill Gang - Lala Song (3:18)
             314. Bodyrox feat Luciana - What Planet You On (Club Mix) (6:36)
             315. Bon Garcon - Freak you hard (3:21)
             316. Butch - Amélie (6:08)
             317. Calvin Harris - I'm Not Alone (3:34)
             318. Cassius feat. Steve Edwards - The Sound of Violence (4:02)
             319. Chris Isaac vs Fatboy Slim - Praise A Wicked Game (7:54)
             320. Chris Lake feat. Laura V - Changes (Dirty South Remix) (8:03)
             321. Colours Feat Domino - Hold Me and Kiss Me (3:23)
             322. Dave Darrell - Children (Club Mix) (6:38)
             323. Dave Darrell - Freeloader (Club Mix) (5:58)
             324. David Guetta - When Love Takes Over (Feat. Kelly Rowland) (3:11)
             325. David Guetta ft. Akon - ***y Bitch (4:03)
             326. David May - Superstar (3:23)
             327. David Tavare feat. 2 Eivissa - Hot Summer Night (Oh La La La) (3:38)
             328. Deadmau5 Feat Rob Swire - Ghosts N Stuff (3:11)
             329. Denzel Park - Finally 2008 (3:00)
             330. Dizzee Rascal Ft. Armand Van Helden - Bonkers (4:27)
             331. Dj Aston Martinez - You Wanna (Klaas remix) (5:43)
             332. DJ Freedom vs Musikk - Hang on 2007 (3:33)
             333. DJ Sogma - Scorponok (Piano Mix) (4:01)
             334. DJ Wayko - El Mariachi (5:37)
             335. Energy 52 - Cafe Del Mar (Out Of Office Remix) (7:42)
             336. Eric Prydz - Pjanoo (Sax Mix) (5:43)
             337. Erick E - The Beat Is Rocking (Housequake Version) (2:54)
             338. Faith Evans - Mesmerized (3:20)
             339. Fedde Le Grand & Funkerman - 3 Minutes To Explain (6:30)
             340. Fedde le Grand - Scared Of Me (3:15)
             341. Flo Rida - Right Round (Benny Bennassi Remix) (3:25)
             342. Fragma - Memory (Klaas Mix Edition) (3:49)
             343. Freemasons - Rain Down Love (7:01)
             344. Freemasons ft Sophie Ellis Bextor - Heartbreak (Make Me A Dancer) (3:29)
             345. Funkerman - Speed Up (6:22)
             346. Gadjo - So Many Times (5:46)
             347. Gusto - Discos Revenge (3:08)
             348. Hed Kandi - Put em high (4:47)
             349. Ian Carey - Get Shaky (3:24)
             350. Ian Carey - Keep On Rising (3:11)
             351. Ian Oliver - Skankin (3:22)
             352. Ian Oliver feat. Shantel vs. Yves Larock - Rise Up Bucovina (6:32)
             353. Ian Van Dahl - Just A Girl (3:43)
             354. Ida Engberg - Disco Volante (Sebastien Leger Remix) (3:47)
             355. Jean Elan - Where's Your Head At (Klass Remix) (4:37)
             356. Junior Jack - My Feelings Can't Explain (3:46)
             357. Junior Jack - Thrill Me (4:21)
             358. Justice - We Are Your Friends (4:18)
             359. Klaas Meets. Haddaway - What Is Love 2K9 (Klaas Club Mix) (5:28)
             360. Laurent Garnier - Man With The Red Face (Mark Knight & Funkagenda Radio Remix) (3:12)
             361. Laurent Wolf - No Stress (Club Mix) (7:01)
             362. Manian - Welcome To The Club (3:26)
             363. Marco V - Simulated (Marco V re-edit) (3:08)
             364. Markus Gardeweg feat. Michael Feiner - Fairplay (let there be love) (3:34)
             365. MGMT - Kids (Soulwax Nite Remix) (4:42)
             366. Michael Mind - Baker Street (3:18)
             367. Mike Candys & Jack Holiday - La Serenissima (Work That Body Remix) (4:55)
             368. Mike Candys - La Disco Loca Mr.P nk Remix (2:12)
             369. Mini Viva - Left My Heart In Tokyo (Remix) (6:09)
             370. Moby - Disco Lies (Spencer And Hill Remix) (6:16)
             371. Narcotic Thrust - I like it (3:06)
             372. Ocean Drive- Some People (Ft DJ Oriska) (3:31)
             373. Oxia - Domino (7:13)
             374. Pakito - Living on Video 2.9 (Remix) (5:50)
             375. Pat-Rich Vs Nicola Fasano - 75 Brazil Street (3:35)
             376. Platnum - Love Shy (Soul Avengerz Remix) (3:28)
             377. Pussycat Dolls - Jai Ho (DJ Fisun Radio Edit) (3:59)
             378. R.I.O. - When The Sun Comes Down (Spencer & Hill Remix) (5:17)
             379. Remady P&R - No Superstar (Radio Mix) (3:37)
             380. Rhythm Republic vs Marshall Jefferson - Move Your Body (Soul Avengerz remix) (8:00)
             381. Richard Grey - Thriller (Full Vocal Mix) (5:49)
             382. Robert Abigail - Mojito Song (3:00)
             383. Royksopp - The Girl and the Robot (4:28)
             384. Sash ft. Stunt - Raindrops (2:54)
             385. Scotty - The Black Pearl (Dave Darell Remix) (5:58)
             386. Shakedown - At Night (Seamus Haji Remix) (8:48)
             387. Sonic Palms - On The Beach (Radio Edit) (3:40)
             388. Soul Providers - Rise (Bini & Martini Vocal Mix) (2:42)
             389. Sound System - Dreamscape (4:40)
             390. Steve Angello & Laidback Luke ft. Robin S - Show me love (3:04)
             391. Supafly Inc - She's Part of History (7:06)
             392. Supafly vs Fishbowl - Lets get down (3:07)
             393. The Montanas and Dj Roland Clark - Music Talking (Fred Falke remix) (4:41)
             394. The Outsiders - Keep This Fire Burning (5:08)
             395. The Prodigy - Warrior's Dance (3:24)
             396. Turbofunk - Gotta Move (Fonzerelli Mix) (6:00)
             397. Utah Saints - Something Good (Van She 08 Radio Edit) (2:45)
             398. Verano - Rhythm Of The Night (2:29)
             399. Wolfgang Gartner - Wolfgang's 5th Symphony (7:30)
             400. Yves Larock - By Your Side (3:28)



    Contenido Oculto Este post contiene información oculta, debes contestar el post o hacer click en el botón 'Gracias' para ver el contenido.









    Descargar Aqui

    fresjo likes this.



  2. Avatar de Alejandra09
    Alejandra09 está desconectado *Dios del FORO*
    Fecha de ingreso
    09 dic, 08
    Mensajes
    18,864

    Re: Top 100 Trance and Techno Party Songs of All Time 4CD

    Gracias por el aporte
    ..No Cites todo el post,da click en el boton

    "La noche está estrellada,y tiritan, azules,
    los astros, a lo lejos...»

    Mis Aportes


  3. Vituzack está desconectado *Novato Avanzado*
    Fecha de ingreso
    21 mar, 11
    Mensajes
    47

    Re: Top 100 Trance and Techno Party Songs of All Time 4CD

    Cita Iniciado por Alejandra09 Ver mensaje
    Gracias por el aporte
    esta buena la compilacion?

  4. juanjo111 está desconectado *User Avanzado*
    Fecha de ingreso
    23 nov, 09
    Mensajes
    132

    Re: Top 100 Trance and Techno Party Songs of All Time 4CD

    Muchas graciass

  5. juanjo111 está desconectado *User Avanzado*
    Fecha de ingreso
    23 nov, 09
    Mensajes
    132

    Re: Top 100 Trance and Techno Party Songs of All Time 4CD

    Muchass graciass

  6. Avatar de cfuk
    cfuk está desconectado *Experto*
    Fecha de ingreso
    01 ago, 08
    Mensajes
    396

    Re: Top 100 Trance and Techno Party Songs of All Time 4CD

    provando

  7. fresjo está desconectado *Novato Avanzado*
    Fecha de ingreso
    04 dic, 08
    Mensajes
    59

    Re: Top 100 Trance and Techno Party Songs of All Time 4CD

    Muchas gracias por este buen aporte


    Cita Iniciado por adisdsf Ver mensaje


    VA.Top.100.Trance.and.Techno.Party.Songs.of.All.Ti me.4CD.s.iNT








    Código:
    Audio
    Format                           : MPEG Audio
    Format version                   : Version 1
    Format profile                   : Layer 3
    Format settings, Mode            : Joint stereo / MS Stereo
    Bit rate mode                    : Variable
    Bit rate                         : 192 Kbps
    Channel(s)                       : 2 channels
    Sampling rate                    : 44.1 KHz
    Resolution                       : 16 bits
    Stream size                      : 15.9 MiB (100%)
    Writing library                  : LAME3.91
    
    
    
    400 tracks in playlist, average track length: 4:13
    Playlist length: 28 hours 13 minutes 8 seconds


    Código:
             1. Alice Deejay - Better off alone (4:11)
             2. Antiloop - Believe (3:27)
             3. Antiloop - Only U (3:18)
             4. Armand Van Helden - My My My 2006 (Stonebridge Remix) (8:40)
             5. ATB - 9pm (Till I Come) (3:18)
             6. ATB - Ayla (4:09)
             7. ATC - Around The World (3:38)
             8. Banana Inc. - Club Kink (2:24)
             9. Barcode Brothers - Flute (4:44)
             10. Base Attack - Techno Rocker (3:31)
             11. BassHunter - Boten Anna (5:17)
             12. BassHunter - Russia Privjet (4:07)
             13. Beatfreakz - Somebodys Watching Me (Hi Tack Remix) (2:48)
             14. Benny Benassi - Satisfaction (6:29)
             15. Benny Benassi Bross - Every Single Day (4:44)
             16. Bob Marley vs. Funkstar De Lux - Sun is Shining (3:54)
             17. Bob Sinclar - World Hold On (3:17)
             18. Booty Luv - Boogie 2night (3:14)
             19. Creambase - Fiddle 2003 (3:32)
             20. Dance 2 Trance - Power Of American Natives ´98 (3:29)
             21. Dance Nation - Move Your Love (UK Radio Edit) (2:50)
             22. Dancing DJs vs Roxette - Fading Like A Flower (3:04)
             23. Danzel vs Dj F.R.A.N.K. - My Arms Keep Missing you (3:05)
             24. Darude - Feel The Beat (4:17)
             25. Darude - Sandstorm (3:45)
             26. David Guetta vs The Egg -Love Dont Let Me Go (walking away) (3:10)
             27. Dj Aligator Project - The Whistle Song (3:42)
             28. DJ Antoine - Arabian Adventure 2 (4:05)
             29. Dj Dream - Hoppesangen (2:57)
             30. Dj jean - The Launch (3:10)
             31. Dj Jose vs G Spott - House of Justice (3:35)
             32. Dj Jose vs G Spott - Wrong is Right (3:22)
             33. DJ Mangoo - Eurodancer (3:15)
             34. Dj Mystik - China (4:10)
             35. Dj Sammy and Yanou - Heaven (2:04)
             36. Dj Satomi - Castle In The Sky (3:14)
             37. Dj Satomi - Waves (3:37)
             38. DJ Sona - Xplosion (6:13)
             39. DJ Tiesto - Theme From Norefjell (4:32)
             40. Dra Pĺ - Flřytesangen (3:29)
             41. Drunken monkey - Calabria (2:37)
             42. East Clubbers - Beat Is Coming (4:34)
             43. East Clubbers - ***tasy (3:59)
             44. Eric Prydz - Call on Me (7:33)
             45. Estima - Hitmans Paradise (3:58)
             46. Faithless - Insomnia (3:34)
             47. Fedde Le Grand - Put Your Hands Up for detroit (6:06)
             48. French Affair - ***y (3:48)
             49. Galaxee - Lullaby (5:08)
             50. Gigi D'Agostino - Baci Abbracci (4:49)
             51. Gigi D'Agostino - L´Amour Toujours (3:51)
             52. Gigi D'Agostino - The Riddle (4:45)
             53. Gigi D'Agostino - you spin me round (4:17)
             54. Global Deejays - Get Up 2007 (7:22)
             55. Global Deejays Vs Benny Benassi - San Fransisco Dreaming (9:09)
             56. Hi Tack - Say Say Say (waiting 4 u) (3:59)
             57. Il Caesar - Calma (2:59)
             58. Interphase - Dr Feelgood 2003 (5:50)
             59. John Parr vs Tommyknockers - New Horizon (2:34)
             60. Junior Jack - Dare Me vs Stupidisco (6:56)
             61. Leszek Piesek - Hau Hau (4:08)
             62. Lightforce - Eternity (7:00)
             63. Loleatta Holloway - Love Sensation 06 (2:59)
             64. Mason Vs Princess Superstar - Perfect Exceeder (3:32)
             65. Master Blaster - Hypnotic Tango (2:54)
             66. Mauro Picotto - Komodo (3:23)
             67. Mauro Picotto - Proximus (3:31)
             68. Meck feat Leo Sayer - Thunder In My Heart Again (3:01)
             69. Michael Gray - Weekend (3:13)
             70. Milk and Sugar - What is love (7:51)
             71. Mylo feat Miami Sound - Machine Doctor Pressure (3:25)
             72. Pakito - Living on video (3:20)
             73. Paul van Dyk - For an Angel (3:54)
             74. Prodigy - Smack My Bitch Up (5:42)
             75. Pulsedriver - The Whistle Song (3:10)
             76. Rocco - Drop The Bass (3:15)
             77. Roger sanchez - Another Chance (3:27)
             78. Rollergirl - Superstar (3:38)
             79. Salt 'n Pepa - Push It (DJ Tonka Remix) (3:42)
             80. Sander Kleinenberg - This is not Miami (7:39)
             81. Sash! - Ecuador (3:34)
             82. Scooter - Aiii Shot The Dj (3:31)
             83. Scooter - One (Always Hardcore) (5:30)
             84. Sharam - Party All The Time (10:37)
             85. SkyMarshall Arts - From Paris to Berlin Redux (4:08)
             86. Snap - Rhythm is a Dancer (3:09)
             87. Sonique - It feels so Good (3:47)
             88. Special D - Come with me (3:51)
             89. Steve Angello - Davali (5:52)
             90. Studio B - I see Girls (2:58)
             91. Sunblock feat Robin Beck - First Time (2:38)
             92. Sunblock ft. sandy - Baby Baby (3:22)
             93. Sunloverz - Shine On (Heiko & Maikos Gute Laune Remix) (6:29)
             94. Sunset Strippers - Falling Stars (3:17)
             95. Supermode - Tell Me Why (2:50)
             96. Team deep - Morning light (4:15)
             97. The Planets - Contradanza (Almighty Radio Edit) (4:11)
             98. Till West & DJ Delicious - Same Man (Radio Edit) (3:32)
             99. United Nations - Out of touch (2:46)
             100. Zombie Nation - Kernkraft 400 (3:28)
             101. 2 Brothers On The 4th Floor - Living In Cyberspace (3:40)
             102. 2ned Boy - Another Story Come (3:26)
             103. 2pm - Tetris (3:02)
             104. Alex C - Du Hast Den Schonsten Arsch Der Welt (basshunter mix) (3:42)
             105. Angello and Ingrosso - umbrella (3:36)
             106. Asian Mon**** - Kiss Me (3:05)
             107. Axwell - Feel The Vibe (6:29)
             108. Axwell feat. Max'C - I Found You (2:52)
             109. Axwell ft Steve Edwards - Watch The Sunrise (8:02)
             110. Banana Inc - Monkey Island (Club Mix) (5:29)
             111. Baracuda - Ass Up (Banana Inc. Remix) (3:06)
             112. Barthezz - On the Move (3:33)
             113. Benassi Bros Feat Sandy - Illusion (3:33)
             114. Bob Boomerang ft TI - Eyes Will See (4:46)
             115. Bodyrockers - I Like The Way You Move (6:18)
             116. Bodyrox ft. Luciana - Yeah Yeah (2:36)
             117. Bomfunk MC's - Freestyler (5:05)
             118. Booty Luv - Dont Mess With My Man (2:53)
             119. Booty Luv - Some Kinda Rush (Dub Mix) (3:46)
             120. Breeze vs Lost Witness - Rise Again (short version) (3:58)
             121. Brooklyn Bounce - Bass, Beats and Melody (3:41)
             122. Brothers - Dieci Cento Mille (4:55)
             123. Calvin Harris - Acceptable In The 80's (5:33)
             124. Cascada - Everytime We Touch (3:18)
             125. Cascada - Magic Summer Night (3:26)
             126. Cosmic Gate - Exploration of Space (8:16)
             127. Culture Beat - Mr Vain (3:28)
             128. Da Hool - Meet Her at the Loveparade (3:32)
             129. Danny saucedo - Tokyo (3:17)
             130. Dave Mccullen - Rave Heaven (3:04)
             131. David Guetta feat. Chris Willis - Love Is Gone (3:21)
             132. Digital Bitches ft Headline - heaven (3:35)
             133. Dj Gillies - Kiss Kiss (3:35)
             134. Dj Kawamba - People of Aruba (3:11)
             135. DJ Panda - It's a dream (4:33)
             136. DJ Porny - Me So Horny (3:08)
             137. DJ Quicksilver - Belissima (3:51)
             138. Dj Sona - House Baby (3:31)
             139. Dj Tiesto - Adagio For Strings (7:23)
             140. Dj Tiesto - He's a Pirate (4:05)
             141. Dj Whisky - Celtic Celebration (4:59)
             142. East Clubbers - Russian (5:43)
             143. East Clubbers - To The Moon And Back (3:21)
             144. Energy 52 - Cafe Del Mar (3:18)
             145. Eric Prydz & Steve Angello - Woz Not Woz (4:40)
             146. Eric Prydz vs Floyd - Proper Education (3:18)
             147. Fedde le Grand - Put your Hands up for Detroit (2:28)
             148. Freddy Fader meets Locana - Bom Bom (Suenan) (3:08)
             149. Freddy Hawk - Like This (Club Mix) (4:52)
             150. Groove Coverage - 7 Years and 50 days (3:45)
             151. Hardrox - Feel The Hard Rock (Up To No Good) (3:11)
             152. Hed Kandi - Last night a DJ (6:00)
             153. Hi Tack - Lets dance (3:05)
             154. Ida Corr vs Fedde Le Grand - Let Me Think About It (2:31)
             155. Kash Vs Inxs - Dream On Black Girl (Radio Edit) (3:18)
             156. Kate Ryan - Desenchantee (3:33)
             157. Kate Ryan - Voyage Voyage (3:43)
             158. Kim Leoni - Again (original radio mix) (3:21)
             159. Krid P. - Bag Pipes (3:25)
             160. Lacuna - Celebrate The Summer (radio mix) (3:43)
             161. Lasgo - Something (3:42)
             162. Lucky Twice - I'm so Lucky Lucky (3:24)
             163. Mark Ronson - Stop Me (Kissy Sell Out Remix) (4:19)
             164. Mauro Picotto - Like This Like That (3:43)
             165. Michael Mind ft Manfred Manns Earth Band - Blinded By The Light (2:47)
             166. Nikita and Lance - Can u See (conways radio mix) (2:54)
             167. OptimizE - Tais-Toi (Summer Vacation Edit) (3:27)
             168. Paffendorf - Its not Over (3:18)
             169. Paffendorf - Lalala Girl (2:41)
             170. Pakito - Are You Ready (6:03)
             171. Pakito - You Wanna Rock (4:16)
             172. Paul Van Dyke - Nothing But You (Club Mix) (8:26)
             173. Pimp Code - You Know (2:46)
             174. Pulsedriver - Cambodia (3:49)
             175. Rave Allstars - Hardcore Vibes (radio edit) (3:14)
             176. Robert Miles - Children (3:51)
             177. Rocco - Everybody (3:22)
             178. RockeFeller - Do It 2nite (Hi Tack Mix) (4:01)
             179. Safri Duo - Played A-Live (The Bongo Song) (3:20)
             180. Samim - Heater (3:01)
             181. Sasha Dith - Russian Girls (2:53)
             182. Scooter - Behind the Cow (radio edit) (3:38)
             183. Scooter - Maria (I Like it Loud) (3:39)
             184. September - Cry for You (radio version) (3:28)
             185. Spektrum - Kinda New (Dirty South Mix) (6:44)
             186. Starting Rock feat. Diva Avari - Dont Go (3:29)
             187. Stian K - Be Alive (4:08)
             188. The Attic - Catch Me When I Fall For You (3:29)
             189. The Bomb feat Seanfinn - Skynight (3:15)
             190. The Hitmen - Like I Love You (3:27)
             191. The Springlove - Porque Te Vas (2:26)
             192. Timbaland - The Way I Are (Stian K & Dj excellence rmx) (3:47)
             193. Topmodelz - L'Esperanza 2007 (Rework Radio Edit) (3:08)
             194. Tune Up - Ravers fantasy (3:29)
             195. Tune Up - Start The Game Again (6:06)
             196. Tune Up Vs Italobrothers - Colours Of The Rainbow (5:20)
             197. Vinylshakerz Love is a Fragile Thing (3:29)
             198. Vip - Lille Anders (3:10)
             199. Yves Larock - Rise Up (radio edit) (4:00)
             200. Yves Larock - Zookey (Lift Your Leg Up) (8:22)
             201. Airbeat Project - Airbeat One (4:47)
             202. Alanta - Mercy (Red Rhythm radio edit) (3:41)
             203. Alex Gaudino feat. Shena - Watch Out (2:58)
             204. Armand Van Helden - You don't Know Me (7:21)
             205. Armin van Buuren ft Jan Vayne - Serenity (2:59)
             206. Arno Cost & Arias - Magenta (3:37)
             207. ATB - You're Not Alone (Airplay Mix) (3:30)
             208. Backside Artists - Freed from Desire (2:52)
             209. Barcode Brothers - Dooh Dooh (Radio Edit) (3:54)
             210. Barthezz - Infected (3:47)
             211. Basment Jaxx - Where's your Head At (4:43)
             212. BassHunter - Welcome to Rainbow (5:17)
             213. Bennasi Bros - Make Me Feel (5:30)
             214. Benny Benassi - Love Is Gonna Save Us (5:05)
             215. Benny Benassi - Turn me up (5:49)
             216. Benny Benassi Feat Sandy - Illusion (Spychool Mix) (5:34)
             217. Bob Sinclar and Axwell feat. Ron Carroll - What a Wonderful World (3:07)
             218. Carlos - The Silmarillia 2007 Remixes (4 Strings Radio Edit) (3:19)
             219. Chanel - My Life (M-Factor Dub Mix) (6:00)
             220. Corona - Rhythm Of The Night (5:27)
             221. Daft Punk - Harder Better Faster Stronger (Alive 2007) (3:31)
             222. Dallas Superstars - Fine Day (radio edit) (3:48)
             223. Daniel Hoppe feat. Paul King - Love & Pride 2005 (3:26)
             224. Danzel - Jump (3:12)
             225. David McCullen - I Just Want To Call You My Bitch (3:53)
             226. DJ Antoine - This Time (Klaas Remix) (6:22)
             227. DJ Antoine - Work (2:13)
             228. Dj Jurgen - Higher and Higher (3:54)
             229. DJ Ozi - Juicy Pen (3:40)
             230. Dj Peran - Wanna Be Free (3:28)
             231. Dj Quicksilver - Ameno (3:29)
             232. Dj Sneak - Fix My Sink (3:25)
             233. Dj Tiesto - Elements Of Life (8:25)
             234. Dj Tiesto - Lethal Industry (2:45)
             235. DJ Tiesto - Summer Jam (Gigi D'Agostino Remix) (5:20)
             236. Driftwood Djteam - Freeloader (3:25)
             237. Earth Wind and Fire - September 99 (3:41)
             238. East Clubbers - Equal I Love (4:08)
             239. East Clubbers - Make Me Live (Max Farenthide Remix) (5:28)
             240. Eddy Wata - I Love My People (3:31)
             241. Erick Prydz - Pjanoo (original mix) (4:59)
             242. Fat Boy Slim - Apache (2:46)
             243. FKNJahala - Why [Aly & FILA Remix] (3:08)
             244. Fonzerelli - Moonlight Party (DJ Tiesto Remix) (3:25)
             245. Fragma - Toca Me (inpetto 2008 edit) (3:28)
             246. Freaks - The Creeps (you re giving me) (vandalism remix) (3:06)
             247. Freemasons - Uninvited (Radio Edit) (3:02)
             248. Freemasons feat. Katherine Ellis - When You Touch Me (3:09)
             249. Gareth Emery - More Than Anything (Stoneface & Terminal Remix) (4:53)
             250. Genial - South Beach (4:00)
             251. Gigi D'Agostino - La Passion (3:30)
             252. Global Deejays - What a Feeling (5:28)
             253. Gregor Salto ft Red - Looking Good (3:10)
             254. Guru Josh Project - Infinit (klass vocal edit) (3:11)
             255. Hi-Tack - Silence (4:56)
             256. House Of Pain - Jump Around (Micky Slim Remix) (6:14)
             257. Ian Oliver - Bucovina (Markus Gardeweg radio edit) (3:16)
             258. Icebird - Eskimo (3:19)
             259. Irvin feat. Emilie - Spektrum (4:39)
             260. J - I Feel Divine [Tall Paul Mix] (7:37)
             261. Justice - Genesis (3:54)
             262. Kate Ryan - Ella Elle L'a (3:04)
             263. Kate Ryan - Scream For More (7:42)
             264. Klubbheads - Klubhoppin (5:04)
             265. Lichtenfels - Sounds Like A Melody (Pulsedriver Radio Edit) (3:56)
             266. Luvstruck - Southside Spinners (2:48)
             267. Mario Piu - Communication (3:34)
             268. Mark van Daele and Enrico - Water Verve (2:36)
             269. Mattara - Send The Message (yeke yeke) (3:37)
             270. Mauro Picotto - Evribadi (Fonzerelli Radio Edit) (3:03)
             271. Musikk - Summer Lovin (Mr Bronkz Remix) (4:04)
             272. Olav Basoki - Waterman (3:09)
             273. Pakito - Funky Groove (5:44)
             274. Paul Johnson - Get Get Down (laidback luke remix) (3:58)
             275. Peran Van Dijk - Good Time (Radio Edit) (3:37)
             276. Pizza Man - I Don't Need This Shit (3:49)
             277. R.I.O. - Shine One Me (3:22)
             278. Robin S - You Got To Show Me Love (Club Edit) (4:53)
             279. Rockefeller - Do It 2nite (Olav Basoski Remix) (8:15)
             280. Roger Sanchez - Turn on the Music (4:02)
             281. Royksopp - Remind Me (Someone Else's Radio Remix) (4:05)
             282. Rui Da Silva -Touch Me [Original 12 Mix] (3:25)
             283. September - Looking For Love (3:25)
             284. Shana Vanguarde - Gimme! Gimme! Gimme! (Royal Gigolos Club Mix) (5:51)
             285. Shapeshifters - Lolas Theme (4:28)
             286. Spit - Falling (Radio Vocal Edit) (4:03)
             287. Spoonface - Here For You (Rooney And Paul Sanders Original Radio) (3:59)
             288. Stardust - Music Sounds Better With You (4:21)
             289. The Chemical Brothers - Galvanize (4:29)
             290. The Disco Boys - I Came For You (3:44)
             291. The Drill - The Drill (3:02)
             292. Theree Drives On A Vinyl - Greece 2000 (3:39)
             293. Tiesto - Adagio 4 Strings (Wrongun Remix) (7:55)
             294. Tom Snare - Philosophy (Original Mix) (3:23)
             295. Ttom Novy - Your Body (3:32)
             296. United Nations - You And Me (3:14)
             297. Who Da Funk feat. Jessica Eve - Shiny Disco Balls (Club Mix) (4:04)
             298. Wiley - Wearing My Rolex (2:53)
             299. Wolfgang - Vendetta Del Disco (3:49)
             300. Yahel and Eyal Barkan - Voyage (8:52)
             301. Agnes - Release Me (2:58)
             302. Alex Gaudino & Jason Rooney - I Love Rock'n'roll (3:15)
             303. Alp vs Outwork - Fiesta Elektronica (3:38)
             304. Alphabeat - Fascination (Bimbo Jones Mix) (6:00)
             305. Anything But Monday - Bump (Control-S Club Mix) (7:42)
             306. Armand Van Helden - Je Taime (3:20)
             307. Asle - Golden Sun (Seamus Haji & Paul Emmanuel Rmx) (8:17)
             308. Axwell and Sebastian Ingrosso - Its true (3:06)
             309. Barry White - Let The Music Play (Funkstars Club Deluxe Edit) (3:00)
             310. Basic Element feat D-Flex - Touch You Right Now (3:09)
             311. Benni Benassi - Sweet Dreams (3:29)
             312. Bingo Players Vs Chocolate Puma - Touch Me (3:44)
             313. Bob Sinclair feat. Sugarhill Gang - Lala Song (3:18)
             314. Bodyrox feat Luciana - What Planet You On (Club Mix) (6:36)
             315. Bon Garcon - Freak you hard (3:21)
             316. Butch - Amélie (6:08)
             317. Calvin Harris - I'm Not Alone (3:34)
             318. Cassius feat. Steve Edwards - The Sound of Violence (4:02)
             319. Chris Isaac vs Fatboy Slim - Praise A Wicked Game (7:54)
             320. Chris Lake feat. Laura V - Changes (Dirty South Remix) (8:03)
             321. Colours Feat Domino - Hold Me and Kiss Me (3:23)
             322. Dave Darrell - Children (Club Mix) (6:38)
             323. Dave Darrell - Freeloader (Club Mix) (5:58)
             324. David Guetta - When Love Takes Over (Feat. Kelly Rowland) (3:11)
             325. David Guetta ft. Akon - ***y Bitch (4:03)
             326. David May - Superstar (3:23)
             327. David Tavare feat. 2 Eivissa - Hot Summer Night (Oh La La La) (3:38)
             328. Deadmau5 Feat Rob Swire - Ghosts N Stuff (3:11)
             329. Denzel Park - Finally 2008 (3:00)
             330. Dizzee Rascal Ft. Armand Van Helden - Bonkers (4:27)
             331. Dj Aston Martinez - You Wanna (Klaas remix) (5:43)
             332. DJ Freedom vs Musikk - Hang on 2007 (3:33)
             333. DJ Sogma - Scorponok (Piano Mix) (4:01)
             334. DJ Wayko - El Mariachi (5:37)
             335. Energy 52 - Cafe Del Mar (Out Of Office Remix) (7:42)
             336. Eric Prydz - Pjanoo (Sax Mix) (5:43)
             337. Erick E - The Beat Is Rocking (Housequake Version) (2:54)
             338. Faith Evans - Mesmerized (3:20)
             339. Fedde Le Grand & Funkerman - 3 Minutes To Explain (6:30)
             340. Fedde le Grand - Scared Of Me (3:15)
             341. Flo Rida - Right Round (Benny Bennassi Remix) (3:25)
             342. Fragma - Memory (Klaas Mix Edition) (3:49)
             343. Freemasons - Rain Down Love (7:01)
             344. Freemasons ft Sophie Ellis Bextor - Heartbreak (Make Me A Dancer) (3:29)
             345. Funkerman - Speed Up (6:22)
             346. Gadjo - So Many Times (5:46)
             347. Gusto - Discos Revenge (3:08)
             348. Hed Kandi - Put em high (4:47)
             349. Ian Carey - Get Shaky (3:24)
             350. Ian Carey - Keep On Rising (3:11)
             351. Ian Oliver - Skankin (3:22)
             352. Ian Oliver feat. Shantel vs. Yves Larock - Rise Up Bucovina (6:32)
             353. Ian Van Dahl - Just A Girl (3:43)
             354. Ida Engberg - Disco Volante (Sebastien Leger Remix) (3:47)
             355. Jean Elan - Where's Your Head At (Klass Remix) (4:37)
             356. Junior Jack - My Feelings Can't Explain (3:46)
             357. Junior Jack - Thrill Me (4:21)
             358. Justice - We Are Your Friends (4:18)
             359. Klaas Meets. Haddaway - What Is Love 2K9 (Klaas Club Mix) (5:28)
             360. Laurent Garnier - Man With The Red Face (Mark Knight & Funkagenda Radio Remix) (3:12)
             361. Laurent Wolf - No Stress (Club Mix) (7:01)
             362. Manian - Welcome To The Club (3:26)
             363. Marco V - Simulated (Marco V re-edit) (3:08)
             364. Markus Gardeweg feat. Michael Feiner - Fairplay (let there be love) (3:34)
             365. MGMT - Kids (Soulwax Nite Remix) (4:42)
             366. Michael Mind - Baker Street (3:18)
             367. Mike Candys & Jack Holiday - La Serenissima (Work That Body Remix) (4:55)
             368. Mike Candys - La Disco Loca Mr.P nk Remix (2:12)
             369. Mini Viva - Left My Heart In Tokyo (Remix) (6:09)
             370. Moby - Disco Lies (Spencer And Hill Remix) (6:16)
             371. Narcotic Thrust - I like it (3:06)
             372. Ocean Drive- Some People (Ft DJ Oriska) (3:31)
             373. Oxia - Domino (7:13)
             374. Pakito - Living on Video 2.9 (Remix) (5:50)
             375. Pat-Rich Vs Nicola Fasano - 75 Brazil Street (3:35)
             376. Platnum - Love Shy (Soul Avengerz Remix) (3:28)
             377. Pussycat Dolls - Jai Ho (DJ Fisun Radio Edit) (3:59)
             378. R.I.O. - When The Sun Comes Down (Spencer & Hill Remix) (5:17)
             379. Remady P&R - No Superstar (Radio Mix) (3:37)
             380. Rhythm Republic vs Marshall Jefferson - Move Your Body (Soul Avengerz remix) (8:00)
             381. Richard Grey - Thriller (Full Vocal Mix) (5:49)
             382. Robert Abigail - Mojito Song (3:00)
             383. Royksopp - The Girl and the Robot (4:28)
             384. Sash ft. Stunt - Raindrops (2:54)
             385. Scotty - The Black Pearl (Dave Darell Remix) (5:58)
             386. Shakedown - At Night (Seamus Haji Remix) (8:48)
             387. Sonic Palms - On The Beach (Radio Edit) (3:40)
             388. Soul Providers - Rise (Bini & Martini Vocal Mix) (2:42)
             389. Sound System - Dreamscape (4:40)
             390. Steve Angello & Laidback Luke ft. Robin S - Show me love (3:04)
             391. Supafly Inc - She's Part of History (7:06)
             392. Supafly vs Fishbowl - Lets get down (3:07)
             393. The Montanas and Dj Roland Clark - Music Talking (Fred Falke remix) (4:41)
             394. The Outsiders - Keep This Fire Burning (5:08)
             395. The Prodigy - Warrior's Dance (3:24)
             396. Turbofunk - Gotta Move (Fonzerelli Mix) (6:00)
             397. Utah Saints - Something Good (Van She 08 Radio Edit) (2:45)
             398. Verano - Rhythm Of The Night (2:29)
             399. Wolfgang Gartner - Wolfgang's 5th Symphony (7:30)
             400. Yves Larock - By Your Side (3:28)



    hidden content may not be quoted









  8. fresjo está desconectado *Novato Avanzado*
    Fecha de ingreso
    04 dic, 08
    Mensajes
    59

    Re: Top 100 Trance and Techno Party Songs of All Time 4CD

    graciaaaas

  9. JorgeDa2012 está desconectado *Novato reciente*
    Fecha de ingreso
    15 nov, 12
    Mensajes
    1

    Re: Top 100 Trance and Techno Party Songs of All Time 4CD

    excelnte aporte

  10. porongaverde está desconectado *User Pro*
    Fecha de ingreso
    06 nov, 12
    Mensajes
    513

    Re: Top 100 Trance and Techno Party Songs of All Time 4CD

    gracias, lo estaba buscando

  11. k_ozd está desconectado *Experto*
    Fecha de ingreso
    11 oct, 08
    Mensajes
    278

    Re: Top 100 Trance and Techno Party Songs of All Time 4CD

    grx por el aporte

  12. armindmx está desconectado *Novato reciente*
    Fecha de ingreso
    22 dic, 13
    Mensajes
    18

    Re: Top 100 Trance and Techno Party Songs of All Time 4CD

    gracias por el aporte

Temas similares

  1. V.A. Techno Party (1992)
    Por paralon en el foro Mp3z Musica
    Respuestas: 5
    Último mensaje: 07/11/2012, 10:05
  2. Respuestas: 2
    Último mensaje: 04/02/2011, 17:49
  3. 50 Techno Trance Anthems Vol.3 (2010)
    Por joelmanson en el foro Mp3z Musica
    Respuestas: 3
    Último mensaje: 29/10/2010, 23:34
  4. Trance Techno Explosion Vol. 2 (2009)
    Por Caloriana en el foro Mp3z Musica
    Respuestas: 18
    Último mensaje: 28/05/2009, 17:13