Descargar:


Wupload:

1 link:
Contenido Oculto Este post contiene información oculta, debes contestar el post o hacer click en el botón 'Gracias' para ver el contenido.
Links 500 MB:
Contenido Oculto Este post contiene información oculta, debes contestar el post o hacer click en el botón 'Gracias' para ver el contenido.
Recomiendo usar JDownloader para la descarga.
Por favor, si se caen los links avísame por mp y los vuelvo a subir.



Sinopsis:
En esta ocasión Jesse Eisenberg interpreta a Nick, un repartidor de pizzas de un pequeño pueblo cuya insulsa vida se topa con los grandes planes de dos criminales de poca monta (Danny McBride y Nick Swardson). La pareja secuestra a Nick para forzarle a robar un banco. Con apenas unas pocas horas para ejecutar esta tarea imposible, Nick consigue la ayuda de su ex-mejor amigo Chet (Aziz Ansari), y a medida que el reloj avanza ambos tendrán que lidiar con la policía, asesinos a sueldo, lanzallamas? y su propia relación tumultuosa?


Información:
Título : 30 Minutos O Menos
Título Original : 30 Minutes Or Less
Año : 2011
Director : Ruben Fleischer
Reparto : Fred Ward, Dilshad Vadsaria, Jordan Trovillion, Alex Rush, Angelique Sky, Elizabeth Wright Shapiro, Geoff Pilkington, Staci Lynn Fletcher, Richard Goteri, Jesse Eisenberg, Danny McBride, Nick Swardson, Michael Peña, Aziz Ansari, Bianca Kajlich
Género : Acción, Comedia
Calidad del vídeo : Blu-Ray Screener
Idioma del audio : Español
Tamaño en Mb : 1129

MediaInfo:
Código:
Format                                   : AVI
Format/Info                              : Audio Video Interleave
File size                                : 1.10 GiB
Duration                                 : 1h 23mn
Overall bit rate                         : 1 901 Kbps
Writing application                      : VirtualDubMod 1.5.10.2 (build 2540/release)
Writing library                          : VirtualDubMod build 2540/release

Video
ID                                       : 0
Format                                   : MPEG-4 Visual
Format profile                           : Advanced Simple@L5
Format settings, BVOP                    : 1
Format settings, QPel                    : Yes
Format settings, GMC                     : No warppoints
Format settings, Matrix                  : Default (H.263)
Muxing mode                              : Packed bitstream
Codec ID                                 : XVID
Codec ID/Hint                            : XviD
Duration                                 : 1h 23mn
Bit rate                                 : 1 699 Kbps
Width                                    : 720 pixels
Height                                   : 304 pixels
Display aspect ratio                     : 2.40:1
Frame rate                               : 23.976 fps
Color space                              : YUV
Chroma subsampling                       : 4:2:0
Bit depth                                : 8 bits
Scan type                                : Progressive
Compression mode                         : Lossy
Bits/(Pixel*Frame)                       : 0.324
Stream size                              : 1 010 MiB (89%)
Writing library                          : XviD 1.2.1 (UTC 2008-12-04)

Audio
ID                                       : 1
Format                                   : MPEG Audio
Format version                           : Version 1
Format profile                           : Layer 3
Codec ID                                 : 55
Codec ID/Hint                            : MP3
Duration                                 : 1h 23mn
Bit rate mode                            : Constant
Bit rate                                 : 192 Kbps
Channel(s)                               : 2 channels
Sampling rate                            : 44.1 KHz
Compression mode                         : Lossy
Stream size                              : 114 MiB (10%)
Alignment                                : Split accross interleaves
Interleave, duration                     : 42 ms (1.00 video frame)
Interleave, preload duration             : 500 ms


Capturas reales: