[RS+MU+FS+WU+FSC] Contagion (2011) CAM XViD


Código:
http://www.imdb.com/title/tt1598778/
Format : AVI
Format/Info : Audio Video Interleave
File size : 1.30 GiB
Duration : 1h 41mn
Overall bit rate : 1 832 Kbps
Writing library : VirtualDub build 32842/release

Video
ID : 0
Format : MPEG-4 Visual
Format profile : Advanced Simple@L5
Format settings, BVOP : 2
Format settings, QPel : No
Format settings, GMC : No warppoints
Format settings, Matrix : Default (H.263)
Muxing mode : Packed bitstream
Codec ID : XVID
Codec ID/Hint : XviD
Duration : 1h 41mn
Bit rate : 1 628 Kbps
Width : 524 pixels
Height : 288 pixels
Display aspect ratio : 16:9
Frame rate : 29.970 fps
Color space : YUV
Chroma subsampling : 4:2:0
Bit depth : 8 bits
Scan type : Progressive
Compression mode : Lossy
Bits/(Pixel*Frame) : 0.360
Stream size : 1.15 GiB (89%)
Writing library : XviD 64

Audio
ID : 1
Format : AC-3
Format/Info : Audio Coding 3
Mode extension : CM (complete main)
Codec ID : 2000
Duration : 1h 41mn
Bit rate mode : Constant
Bit rate : 192 Kbps
Channel(s) : 2 channels
Channel positions : Front: L R
Sampling rate : 48.0 KHz
Bit depth : 16 bits
Compression mode : Lossy
Stream size : 139 MiB (10%)
Alignment : Aligned on interleaves
Interleave, duration : 33 ms (1.00 video frame)
Interleave, preload duration : 512 ms

Source itself is ok but yet again it had a real small resolution so not one for big tvs again ...


Colours were a mess really way too much green and blue maybe its supposed to be like that i dont know ,so ive just tried to balance it out in between

Its ok its not great but its probs best out for now


Cropped,resized , rgb colours changed,hue levels altered ,slight saturation increase ...sharpened slightly.....upped the contrast and messed with the levels filter




Download links

.::FILESERVE::.

Código:
http://www.fileserve.com/file/a7UJhbq
http://www.fileserve.com/file/mRnkgh9
http://www.fileserve.com/file/RvbKtZf
.::FILESONIC::.

Código:
http://www.filesonic.com/file/2065601751
http://www.filesonic.com/file/2065578991
http://www.filesonic.com/file/2089332861
.::WUPLOAD::.

Código:
http://www.wupload.com/file/192061553
http://www.wupload.com/file/192068250
http://www.wupload.com/file/196834692
.::MEGAUPLOAD::.

Código:
http://www.megaupload.com/?d=3GFLOHSO
http://www.megaupload.com/?d=LNMROZGG
http://www.megaupload.com/?d=52E8G73K
.::RAPIDSHARE::.

Código:
https://rapidshare.com/files/285053655/Cont.Mungi.part1.rar
https://rapidshare.com/files/3187132963/Cont.Mungi.part2.rar
https://rapidshare.com/files/127988266/Cont.Mungi.part3.rar
No password