Cowboys And Aliens (2011) [TS-IMAGiNE][Subtitulada][WU-UP-US]





Titulo: Cowboys And Aliens
Titulo Original: Cowboys & Aliens
Genero: Accion
Año De Produccion: 2011
Estreno en España: 29/07/2011
País: Estados Unidos
Cowboys And Aliens Pelicula
Reparto: Olivia Wilde, Harrison Ford, Daniel Craig, Sam Rockwell, Paul Dano, Walton Goggins, Clancy Brown, Ana de la Reguera, Keith Carradine, Noah Ringer, David O'Hara, Adam Beach, Abigail Spencer, Chris Browning, Raoul Trujillo
Director: Jon Favreau
Productores: Universal Pictures, DreamWorks SKG, Reliance Big Entertainment, Relativity Media, Imagine Entertainment, Kurtzman/Orci, Fairview Entertainment, Platinum Studios
Distribuidora: Paramount Pictures



Año 1873. Nos encontramos en Arizona. Una durísima zona desértica. Un extraño llega a la ciudad de Absolution (Daniel Craig). No recuerda nada de su pasado y como único testigo del mismo, una extraña atadura que le rodea una de sus muñecas. Las autoridades locales recelan de todos los forasteros y el extraño pronto será puesto en vigilancia.Pero pronto la calma de Absolution se verá quebrantada por una serie de extrañas luces que llegan desde el cielo. Pronto dichos fenómenos se convierten en un ataque masivo de unas extrañas criaturas que atemorizan a la población. El extraño forastero irá recordando retazos de su pasado, algo que puede salvar la vida a todos. Pero sólo si vaqueros, forajidos y nativos de las tribus locales trabajan juntos para tratar de repeler la invasión con los medios de que dispone



General
Format : AVI
Format/Info : Audio Video Interleave
File size : 851 MiB
Duration : 1h 53mn
Overall bit rate : 1 045 Kbps
Writing application : MEncoder SVN-r22963
Writing library : MPlayer

Video
ID : 0
Format : MPEG-4 Visual
Format profile : Simple@L1
Format settings, BVOP : No
Format settings, QPel : No
Format settings, GMC : No warppoints
Format settings, Matrix : Default (H.263)
Codec ID : XVID
Codec ID/Hint : XviD
Duration : 1h 53mn
Bit rate : 904 Kbps
Width : 512 pixels
Height : 224 pixels
Display aspect ratio : 2.25:1
Frame rate : 29.970 fps
Color space : YUV
Chroma subsampling : 4:2:0
Bit depth : 8 bits
Scan type : Progressive
Compression mode : Lossy
Bits/(Pixel*Frame) : 0.263
Stream size : 736 MiB (86%)
Writing library : Lavc51.40.2

Audio
ID : 1
Format : MPEG Audio
Format version : Version 1
Format profile : Layer 3
Codec ID : 55
Codec ID/Hint : MP3
Duration : 1h 53mn
Bit rate mode : Constant
Bit rate : 128 Kbps
Channel(s) : 2 channels
Sampling rate : 44.1 KHz
Compression mode : Lossy
Stream size : 104 MiB (12%)
Alignment : Aligned on interleaves
Interleave, duration : 26 ms (0.78 video frame)
Interleave, preload duration : 522 ms
Writing library : LAME3.97











LINK INTERCAMBIABLES DE 400MB


Contenido Oculto Este post contiene información oculta, debes contestar el post o hacer click en el botón 'Gracias' para ver el contenido.


Contenido Oculto Este post contiene información oculta, debes contestar el post o hacer click en el botón 'Gracias' para ver el contenido.



Contenido Oculto Este post contiene información oculta, debes contestar el post o hacer click en el botón 'Gracias' para ver el contenido.