Resultados 1 al 4 de 4

Source Code (2011)(TS-XViD)(V.O.SUB-ESP-PEGADOS)(2-link)(FS-BS-US-FKS-FC-FLS-DL)


Descargar Source Code (2011)(TS-XViD)(V.O.SUB-ESP-PEGADOS)(2-link)(FS-BS-US-FKS-FC-FLS-DL) Gratis 1 link Full Source Code (2011)(TS-XViD)(V.O.SUB-ESP-PEGADOS)(2-link)(FS-BS-US-FKS-FC-FLS-DL) por Mediafire con Crack, Serial, KeyGen Full Torrent

  1. explo1515 está desconectado *Dios del FORO*
    Fecha de ingreso
    16 mar, 09
    Mensajes
    3,821

    Source Code (2011)(TS-XViD)(V.O.SUB-ESP-PEGADOS)(2-link)(FS-BS-US-FKS-FC-FLS-DL)


    Source Code (2011)(TS-XViD)(V.O.SUB-ESP-PEGADOS)(2-link)(FS-BS-US-FKS-FC-FLS-DL)




    FICHA TECNICA
    TÍTULO ORIGINAL Source Code
    AÑO 2011
    DURACIÓN 93 min.
    PAÍS [Estados Unidos]
    DIRECTOR Duncan Jones
    GUIÓN Billy Ray, Ben Ripley
    MÚSICA Chris Bacon
    FOTOGRAFÍA Don Burgess
    REPARTO Jake Gyllenhaal, Michelle Monaghan, Vera Farmiga, Jeffrey Wright, Russell Peters
    PRODUCTORA The Mark Gordon Company / Vendome Pictures / Vendome
    GÉNERO Ciencia ficción. Thriller. Acción | Viajes en el tiempo. Trenes


    SINOPSIS
    Colter Stevens (Jake Gyllenhaal), un soldado que forma parte de un programa experimental del gobierno para investigar un atentado terrorista, despierta en la piel de un viajero del tiempo cuya misión es vivir una y otra vez el atentado a un tren hasta que consiga averiguar quién es el culpable. Monaghan interpreta a una chica que viaja en el tren, y Farmiga será un oficial de comunicaciones que controlará a Gyllenhaal en su viaje a través del tiempo.


    INFO
    Video
    ID : 0
    Format : MPEG-4 Visual
    Format profile : Advanced Simple@L5
    Format settings, BVOP : Yes
    Format settings, QPel : No
    Format settings, GMC : No warppoints
    Format settings, Matrix : Default (H.263)
    Muxing mode : Packed bitstream
    Codec ID : XVID
    Codec ID/Hint : XviD
    Duration : 1h 26mn
    Bit rate : 2 140 Kbps
    Width : 720 pixels
    Height : 400 pixels
    Display aspect ratio : 16:9
    Frame rate : 25.000 fps
    Resolution : 8 bits
    Colorimetry : 4:2:0
    Scan type : Progressive
    Bits/(Pixel*Frame) : 0.297
    Stream size : 1.29 GiB (94%)
    Writing library : XviD 1.2.1 (UTC 2008-12-04)

    Audio
    ID : 1
    Format : MPEG Audio
    Format version : Version 1
    Format profile : Layer 3
    Codec ID : 55
    Codec ID/Hint : MP3
    Duration : 1h 26mn
    Bit rate mode : Constant
    Bit rate : 128 Kbps
    Channel(s) : 2 channels
    Sampling rate : 44.1 KHz
    Stream size : 78.9 MiB (6%)
    Alignment : Split accross interleaves
    Interleave, duration : 40 ms (1.00 video frame)
    Interleave, preload duration : 500 ms

    Capturas






    LINK INTERCAMBIABLES DE 1GB

    FILESERVE
    Contenido Oculto Este post contiene información oculta, debes contestar el post o hacer click en el botón 'Gracias' para ver el contenido.

    BITSHARE
    Contenido Oculto Este post contiene información oculta, debes contestar el post o hacer click en el botón 'Gracias' para ver el contenido.


    FREAKSHARE
    Contenido Oculto Este post contiene información oculta, debes contestar el post o hacer click en el botón 'Gracias' para ver el contenido.


    UPLOADSTATION
    Contenido Oculto Este post contiene información oculta, debes contestar el post o hacer click en el botón 'Gracias' para ver el contenido.


    LINK INTERCAMBIABLES DE 400MB

    FILESONIC
    Contenido Oculto Este post contiene información oculta, debes contestar el post o hacer click en el botón 'Gracias' para ver el contenido.



    DUCKLOAD
    Contenido Oculto Este post contiene información oculta, debes contestar el post o hacer click en el botón 'Gracias' para ver el contenido.


    UPLOADED.TO
    Contenido Oculto Este post contiene información oculta, debes contestar el post o hacer click en el botón 'Gracias' para ver el contenido.





  2. koreanojr está desconectado *Novato Avanzado*
    Fecha de ingreso
    30 may, 08
    Mensajes
    38

    Re: Source Code (2011)(TS-XViD)(V.O.SUB-ESP-PEGADOS)(2-link)(FS-BS-US-FKS-FC-FLS-DL)

    ggrraciassssssssssssssssssssssssss

  3. victor91 está desconectado *Novato reciente*
    Fecha de ingreso
    28 feb, 09
    Mensajes
    16

    Re: Source Code (2011)(TS-XViD)(V.O.SUB-ESP-PEGADOS)(2-link)(FS-BS-US-FKS-FC-FLS-DL)

    muchas gracias!!!

  4. ppalermo44 está desconectado *Novato reciente*
    Fecha de ingreso
    14 mar, 11
    Mensajes
    13

    Re: Source Code (2011)(TS-XViD)(V.O.SUB-ESP-PEGADOS)(2-link)(FS-BS-US-FKS-FC-FLS-DL)

    Gracias !!!!!!!!!!!!!!!!!

Temas similares

  1. Respuestas: 7
    Último mensaje: 21/03/2012, 01:14
  2. Source Code (2011) TS XViD-Rx 1.39GB
    Por huongkute66 en el foro Moviez Peliculas
    Respuestas: 0
    Último mensaje: 05/04/2011, 14:29