Resultados 1 al 5 de 5
Like Tree1Likes
  • 1 Post By Krydos

Caballeros del Zodiaco La Gran Batalla de Los Dioses [DVDRip][Esp.Latino][1 Link FS]


Descargar Caballeros del Zodiaco La Gran Batalla de Los Dioses [DVDRip][Esp.Latino][1 Link FS] Gratis 1 link Full Caballeros del Zodiaco La Gran Batalla de Los Dioses [DVDRip][Esp.Latino][1 Link FS] por Mediafire con Crack, Serial, KeyGen Full Torrent

  1. Krydos está desconectado *Master*
    Fecha de ingreso
    07 nov, 09
    Mensajes
    735

    Caballeros del Zodiaco La Gran Batalla de Los Dioses [DVDRip][Esp.Latino][1 Link FS]






    Título: Saint Seiya la película
    Título Hispanoamerica: La Gran Batalla de los Dioses
    Título España: La ardiente batalla de los dioses
    Dirección: Kozo Morishita
    Guión: Yoshiyuki Suga
    Música: Seiji Yokoyama
    Fotografía: Toshio Shirai
    Reparto: Tōru Furuya, Hirotaka Suzuoki, Kōichi Hashimoto, Ryō Horikawa, Hideyuki Hori, Keiko Han
    País: Japón
    Año: 1988
    Género: Anime, acción
    Duración: 45 minutos
    Distribución: Toei Animation

    OVA de Asgard, La Gran Batalla de los Dioses (1988)
    DVDRip | XviD | AC3 2.0 | 1.36 GB | Español Latino | 1988 | Animación |

    Código:
    General
    Complete name                    : Los.Caballeros.del.Zodiaco.La.Gran.Batalla.de.Los.Dioses.1988.DVDRip.XviD.AC3.avi
    Format                           : AVI
    Format/Info                      : Audio Video Interleave
    File size                        : 1.37 GiB
    Duration                         : 45mn 54s
    Overall bit rate                 : 4 268 Kbps
    
    Video
    ID                               : 0
    Format                           : MPEG-4 Visual
    Format profile                   : Advanced Simple@L5
    Format settings, BVOP            : Yes
    Format settings, QPel            : No
    Format settings, GMC             : No warppoints
    Format settings, Matrix          : Default (MPEG)
    Codec ID                         : XVID
    Codec ID/Hint                    : XviD
    Duration                         : 45mn 54s
    Bit rate                         : 3 875 Kbps
    Width                            : 720 pixels
    Height                           : 400 pixels
    Display aspect ratio             : 16:9
    Frame rate                       : 23.976 fps
    Color space                      : YUV
    Chroma subsampling               : 4:2:0
    Bit depth                        : 8 bits
    Scan type                        : Progressive
    Bits/(Pixel*Frame)               : 0.561
    Stream size                      : 1.24 GiB (91%)
    Writing library                  : XviD 1.2.1 (UTC 2008-12-04)
    
    Audio
    ID                               : 1
    Format                           : AC-3
    Format/Info                      : Audio Coding 3
    Format profile                   : Dolby Digital
    Mode extension                   : CM (complete main)
    Codec ID                         : 2000
    Duration                         : 45mn 54s
    Bit rate mode                    : Constant
    Bit rate                         : 384 Kbps
    Channel(s)                       : 2 channels
    Channel positions                : Front: L R
    Sampling rate                    : 48.0 KHz
    Bit depth                        : 16 bits
    Stream size                      : 126 MiB (9%)
    Alignment                        : Split accross interleaves
    Interleave, duration             : 42 ms (1.00 video frame)
    Interleave, preload duration     : 500 ms


    Seiya y los demás Santos dejan Japón, para dirigirse hacia Asgard, donde deberán enfrentar a los guerreros de Asgard y a su patriarca. Una vez más, como era de esperar, la lucha de los heroicos Santos de Bronce tendrá como finalidad salvar a su protectora, la diosa Athena, (Saori).








    1 Link:



    Contenido Oculto Este post contiene información oculta, debes contestar el post o hacer click en el botón 'Gracias' para ver el contenido.

    rulomtl likes this.
    [CENTER]
    Firma Editada por chus24



  2. adanmeiner está desconectado *Novato Avanzado*
    Fecha de ingreso
    17 abr, 09
    Mensajes
    44

    Re: Caballeros del Zodiaco La Gran Batalla de Los Dioses [DVDRip][Esp.Latino][1 Link

    de lujo habe que tal eso espreraba chevere jejej gracis man

  3. Albadani1 está desconectado *Novato reciente*
    Fecha de ingreso
    25 jun, 11
    Mensajes
    9

    Re: Caballeros del Zodiaco La Gran Batalla de Los Dioses [DVDRip][Esp.Latino][1 Link

    Genial....desde hace tiempo la buskaba

  4. rulomtl está desconectado *Novato reciente*
    Fecha de ingreso
    06 ago, 12
    Mensajes
    3

    Re: Caballeros del Zodiaco La Gran Batalla de Los Dioses [DVDRip][Esp.Latino][1 Link

    Gracias por el aporte

  5. Avatar de rente85
    rente85 está desconectado *Dios del FORO*
    Fecha de ingreso
    12 nov, 08
    Mensajes
    1,472

    Re: Caballeros del Zodiaco La Gran Batalla de Los Dioses [DVDRip][Esp.Latino][1 Link

    Gracias por el a porte

Temas similares

  1. Caballeros del Zodiaco-batalla galactica[1Link][PC]
    Por ala49 en el foro Gamez Juegos Warez
    Respuestas: 57
    Último mensaje: 13/03/2014, 02:35
  2. Respuestas: 169
    Último mensaje: 31/12/2013, 19:30
  3. Respuestas: 37
    Último mensaje: 02/02/2013, 01:13
  4. Respuestas: 13
    Último mensaje: 02/09/2012, 02:45
  5. Respuestas: 126
    Último mensaje: 15/08/2012, 15:04