Página 1 de 6 123 ... ÚltimoÚltimo
Resultados 1 al 30 de 153
Like Tree9Likes

Descarga Pelicula "Dias de Ira" 2010Descarga Pelicula "Dias de Ira" 2010(Law Abiding)


Descargar Descarga Pelicula "Dias de Ira" 2010Descarga Pelicula "Dias de Ira" 2010(Law Abiding) Gratis 1 link Full Descarga Pelicula "Dias de Ira" 2010Descarga Pelicula "Dias de Ira" 2010(Law Abiding) por Mediafire con Crack, Serial, KeyGen Full Torrent

  1. Avatar de zakhack
    zakhack está desconectado *Dios del FORO*
    Fecha de ingreso
    09 nov, 07
    Ubicación
    Chile
    Mensajes
    1,538

    Descarga Pelicula "Dias de Ira" 2010Descarga Pelicula "Dias de Ira" 2010(Law Abiding)



    TITULO ORIGINAL: Law Abiding Citizen
    PAIS:
    Estados Unidos
    DIRECCION: F. Gary Gray
    ACTORES:
    Solo los usuarios registrados pueden ver los links de descarga. ¡Registrate ahora, ES GRATIS! , Solo los usuarios registrados pueden ver los links de descarga. ¡Registrate ahora, ES GRATIS! , Solo los usuarios registrados pueden ver los links de descarga. ¡Registrate ahora, ES GRATIS! , Solo los usuarios registrados pueden ver los links de descarga. ¡Registrate ahora, ES GRATIS! , Solo los usuarios registrados pueden ver los links de descarga. ¡Registrate ahora, ES GRATIS! , Solo los usuarios registrados pueden ver los links de descarga. ¡Registrate ahora, ES GRATIS! , Solo los usuarios registrados pueden ver los links de descarga. ¡Registrate ahora, ES GRATIS! .
    GENERO:
    Drama, Suspenso

    Clyde Shelton es un hombre que ve cómo uno de los asesinos de su esposa e hija sale en libertad gracias a un acuerdo legal. Desolado por la noticia, iniciará una venganza contra los criminales y contra todos aquellos que han hecho posible el trato.


    [YOUTUBE]2uv3Bj7Tj-M[/YOUTUBE]

    Código:
    General
    Complete name                    : C:\Documents and Settings\Administrador\Mis documentos\Descargas\DownThem All\cisco\Dias de Ira-Ing.avi
    Format                           : AVI
    Format/Info                      : Audio Video Interleave
    File size                        : 700 MiB
    Duration                         : 1h 48mn
    Overall bit rate                 : 899 Kbps
    Writing application              : VirtualDubMod 1.5.10.2 (build 2540/release)
    Writing library                  : VirtualDubMod build 2540/release
    
    Video
    ID                               : 0
    Format                           : MPEG-4 Visual
    Format profile                   : Advanced Simple@L5
    Format settings, BVOP            : Yes
    Format settings, QPel            : No
    Format settings, GMC             : No warppoints
    Format settings, Matrix          : Default (H.263)
    Muxing mode                      : Packed bitstream
    Codec ID                         : DX50
    Codec ID/Hint                    : DivX 5
    Duration                         : 1h 48mn
    Bit rate                         : 762 Kbps
    Width                            : 640 pixels
    Height                           : 256 pixels
    Display aspect ratio             : 2.500
    Frame rate                       : 23.976 fps
    Resolution                       : 8 bits
    Colorimetry                      : 4:2:0
    Scan type                        : Progressive
    Bits/(Pixel*Frame)               : 0.194
    Stream size                      : 593 MiB (85%)
    Writing library                  : XviD 1.0.3 (UTC 2004-12-20)
    
    Audio
    ID                               : 1
    Format                           : MPEG Audio
    Format version                   : Version 1
    Format profile                   : Layer 3
    Mode                             : Joint stereo
    Format_Settings_ModeExtension    : MS Stereo
    Codec ID                         : 55
    Codec ID/Hint                    : MP3
    Duration                         : 1h 48mn
    Bit rate mode                    : Constant
    Bit rate                         : 128 Kbps
    Channel(s)                       : 2 channels
    Sampling rate                    : 48.0 KHz
    Stream size                      : 99.6 MiB (14%)
    Alignment                        : Aligned on interleaves
    Interleave, duration             : 42 ms (1.00 video frame)
    Interleave, preload duration     : 504 ms







    DESCARGAR!!
    Contenido Oculto Este post contiene información oculta, debes contestar el post o hacer click en el botón 'Gracias' para ver el contenido.

    Última edición por zakhack; 27/04/2010 a las 22:11
    ginger60, akugna, u1063636 and 6 others like this.



  2. Avatar de StoPherKri
    StoPherKri está desconectado *Dios del FORO*
    Fecha de ingreso
    26 may, 09
    Ubicación
    Camaná City!
    Mensajes
    30,562

    Re: Descarga Pelicula "Dias de Ira" 2010Descarga Pelicula "Dias de Ira" 2010(Law Abid

    Gracias...publicado en el home!

  3. alan153 está desconectado *Dios del FORO*
    Fecha de ingreso
    10 nov, 09
    Mensajes
    1,470

    Re: Descarga Pelicula "Dias de Ira" 2010Descarga Pelicula "Dias de Ira" 2010(Law Abid

    gracias por el aporte

  4. Alex_san37 está desconectado *Experto*
    Fecha de ingreso
    12 ene, 10
    Mensajes
    321

    Re: Descarga Pelicula "Dias de Ira" 2010Descarga Pelicula "Dias de Ira" 2010(Law Abid

    gracias buen aporte

  5. albopiante está desconectado *User Pro*
    Fecha de ingreso
    26 jun, 09
    Mensajes
    511

    Re: Descarga Pelicula "Dias de Ira" 2010Descarga Pelicula "Dias de Ira" 2010(Law Abid

    aaaaaaaaaaaaaaaaaaaaaaa
    Cita Iniciado por zakhack Ver mensaje


    TITULO ORIGINAL: Law Abiding Citizen
    PAIS:
    Estados Unidos
    DIRECCION: F. Gary Gray
    ACTORES:
    Solo los usuarios registrados pueden ver los links de descarga. ¡Registrate ahora, ES GRATIS! , Solo los usuarios registrados pueden ver los links de descarga. ¡Registrate ahora, ES GRATIS! , Solo los usuarios registrados pueden ver los links de descarga. ¡Registrate ahora, ES GRATIS! , Solo los usuarios registrados pueden ver los links de descarga. ¡Registrate ahora, ES GRATIS! , Solo los usuarios registrados pueden ver los links de descarga. ¡Registrate ahora, ES GRATIS! , Solo los usuarios registrados pueden ver los links de descarga. ¡Registrate ahora, ES GRATIS! , Solo los usuarios registrados pueden ver los links de descarga. ¡Registrate ahora, ES GRATIS! .
    GENERO:
    Drama, Suspenso

    Clyde Shelton es un hombre que ve cómo uno de los asesinos de su esposa e hija sale en libertad gracias a un acuerdo legal. Desolado por la noticia, iniciará una venganza contra los criminales y contra todos aquellos que han hecho posible el trato.


    [YOUTUBE]2uv3Bj7Tj-M[/YOUTUBE]

    Código:
    General
    Complete name                    : C:\Documents and Settings\Administrador\Mis documentos\Descargas\DownThem All\cisco\Dias de Ira-Ing.avi
    Format                           : AVI
    Format/Info                      : Audio Video Interleave
    File size                        : 700 MiB
    Duration                         : 1h 48mn
    Overall bit rate                 : 899 Kbps
    Writing application              : VirtualDubMod 1.5.10.2 (build 2540/release)
    Writing library                  : VirtualDubMod build 2540/release
    
    Video
    ID                               : 0
    Format                           : MPEG-4 Visual
    Format profile                   : Advanced Simple@L5
    Format settings, BVOP            : Yes
    Format settings, QPel            : No
    Format settings, GMC             : No warppoints
    Format settings, Matrix          : Default (H.263)
    Muxing mode                      : Packed bitstream
    Codec ID                         : DX50
    Codec ID/Hint                    : DivX 5
    Duration                         : 1h 48mn
    Bit rate                         : 762 Kbps
    Width                            : 640 pixels
    Height                           : 256 pixels
    Display aspect ratio             : 2.500
    Frame rate                       : 23.976 fps
    Resolution                       : 8 bits
    Colorimetry                      : 4:2:0
    Scan type                        : Progressive
    Bits/(Pixel*Frame)               : 0.194
    Stream size                      : 593 MiB (85%)
    Writing library                  : XviD 1.0.3 (UTC 2004-12-20)
    
    Audio
    ID                               : 1
    Format                           : MPEG Audio
    Format version                   : Version 1
    Format profile                   : Layer 3
    Mode                             : Joint stereo
    Format_Settings_ModeExtension    : MS Stereo
    Codec ID                         : 55
    Codec ID/Hint                    : MP3
    Duration                         : 1h 48mn
    Bit rate mode                    : Constant
    Bit rate                         : 128 Kbps
    Channel(s)                       : 2 channels
    Sampling rate                    : 48.0 KHz
    Stream size                      : 99.6 MiB (14%)
    Alignment                        : Aligned on interleaves
    Interleave, duration             : 42 ms (1.00 video frame)
    Interleave, preload duration     : 504 ms







    DESCARGAR!!
    hidden content may not be quoted

  6. shushumiguel está desconectado *User Pro*
    Fecha de ingreso
    08 feb, 09
    Mensajes
    647

    Re: Descarga Pelicula "Dias de Ira" 2010Descarga Pelicula "Dias de Ira" 2010(Law Abid

    arre mango

  7. donkeystartreck está desconectado *User Pro*
    Fecha de ingreso
    13 abr, 10
    Mensajes
    447

    Re: Descarga Pelicula "Dias de Ira" 2010Descarga Pelicula "Dias de Ira" 2010(Law Abid

    parece que esta guapo,aver

  8. Bryan Castro está desconectado *Novato reciente*
    Fecha de ingreso
    24 abr, 10
    Mensajes
    12

    Re: Descarga Pelicula "Dias de Ira" 2010Descarga Pelicula "Dias de Ira" 2010(Law Abid

    gracias por el intres q muestran con estos aportes

  9. Avatar de alx_89_1
    alx_89_1 está desconectado *Dios del FORO*
    Fecha de ingreso
    02 nov, 09
    Ubicación
    Chiapas, Mexico
    Mensajes
    2,142

    Re: Descarga Pelicula "Dias de Ira" 2010Descarga Pelicula "Dias de Ira" 2010(Law Abid

    Gracias por el aporte.


    BILL GATES - PAUL ALLEN

  10. jhon garcia está desconectado *Master*
    Fecha de ingreso
    22 jun, 09
    Mensajes
    831

    Re: Descarga Pelicula "Dias de Ira" 2010Descarga Pelicula "Dias de Ira" 2010(Law Abid

    graciassssssssssssssssss

  11. sabrikam23 está desconectado *Master*
    Fecha de ingreso
    02 feb, 10
    Mensajes
    796

    Re: Descarga Pelicula "Dias de Ira" 2010Descarga Pelicula "Dias de Ira" 2010(Law Abid

    gracias por el aporte

  12. gera2009 está desconectado *User Pro*
    Fecha de ingreso
    29 nov, 08
    Mensajes
    411

    Re: Descarga Pelicula "Dias de Ira" 2010Descarga Pelicula "Dias de Ira" 2010(Law Abid

    Se agradece el aporte

  13. emep está desconectado *Master*
    Fecha de ingreso
    29 ene, 10
    Mensajes
    921

    Re: Descarga Pelicula "Dias de Ira" 2010Descarga Pelicula "Dias de Ira" 2010(Law Abid

    Muchas gracias por la peli

  14. edwing está desconectado *Master*
    Fecha de ingreso
    30 jun, 08
    Mensajes
    862

    Re: Descarga Pelicula "Dias de Ira" 2010Descarga Pelicula "Dias de Ira" 2010(Law Abid

    gracias por el aporte

  15. novass está desconectado *User Avanzado*
    Fecha de ingreso
    01 mar, 10
    Mensajes
    153

    Re: Descarga Pelicula "Dias de Ira" 2010Descarga Pelicula "Dias de Ira" 2010(Law Abid






  16. plafom está desconectado *Experto*
    Fecha de ingreso
    24 nov, 08
    Mensajes
    263

    Re: Descarga Pelicula "Dias de Ira" 2010Descarga Pelicula "Dias de Ira" 2010(Law Abid

    h<SVHBa agrhao

  17. pirindolito está desconectado *User Pro*
    Fecha de ingreso
    18 ene, 10
    Mensajes
    680

    Re: Descarga Pelicula "Dias de Ira" 2010Descarga Pelicula "Dias de Ira" 2010(Law Abid

    graciasssssssssssssssssssssssssss

  18. gasmanya está desconectado *Experto*
    Fecha de ingreso
    26 nov, 08
    Mensajes
    389

    Re: Descarga Pelicula "Dias de Ira" 2010Descarga Pelicula "Dias de Ira" 2010(Law Abid

    gracias man!!

  19. lobo518 está desconectado *Novato reciente*
    Fecha de ingreso
    26 abr, 10
    Mensajes
    2

    Re: Descarga Pelicula "Dias de Ira" 2010Descarga Pelicula "Dias de Ira" 2010(Law Abid

    Gracias........................

  20. jarsmith está desconectado *User Pro*
    Fecha de ingreso
    25 ene, 10
    Mensajes
    663

    Re: Descarga Pelicula "Dias de Ira" 2010Descarga Pelicula "Dias de Ira" 2010(Law Abid


  21. clank81 está desconectado *Experto*
    Fecha de ingreso
    16 mar, 10
    Mensajes
    244

    Re: Descarga Pelicula "Dias de Ira" 2010Descarga Pelicula "Dias de Ira" 2010(Law Abid

    gracias man

  22. shajumo está desconectado *User Avanzado*
    Fecha de ingreso
    04 dic, 08
    Mensajes
    169

    Re: Descarga Pelicula "Dias de Ira" 2010Descarga Pelicula "Dias de Ira" 2010(Law Abid

    gracias. eexelente

  23. cneo está desconectado *User Pro*
    Fecha de ingreso
    08 may, 08
    Mensajes
    515

    Re: Descarga Pelicula "Dias de Ira" 2010Descarga Pelicula "Dias de Ira" 2010(Law Abid

    graciassssssssss

  24. bioperrito está desconectado *Novato Avanzado*
    Fecha de ingreso
    28 jun, 08
    Mensajes
    91

    Re: Descarga Pelicula "Dias de Ira" 2010Descarga Pelicula "Dias de Ira" 2010(Law Abid

    exelente movie gracias

  25. Avatar de 666buell
    666buell está desconectado *User Pro*
    Fecha de ingreso
    07 sep, 09
    Mensajes
    553

    Re: Descarga Pelicula "Dias de Ira" 2010Descarga Pelicula "Dias de Ira" 2010(Law Abid


  26. franciscopb está desconectado *User Pro*
    Fecha de ingreso
    21 dic, 09
    Mensajes
    609

    Re: Descarga Pelicula "Dias de Ira" 2010Descarga Pelicula "Dias de Ira" 2010(Law Abid

    tenemos buen cine

  27. Villable está desconectado *Master*
    Fecha de ingreso
    17 dic, 08
    Mensajes
    753

    Re: Descarga Pelicula "Dias de Ira" 2010Descarga Pelicula "Dias de Ira" 2010(Law Abid

    Gracias por todo

  28. homerorey está desconectado *Master*
    Fecha de ingreso
    28 nov, 09
    Mensajes
    738

    Re: Descarga Pelicula "Dias de Ira" 2010Descarga Pelicula "Dias de Ira" 2010(Law Abid

    graciasssssssssssssss

  29. santisan está desconectado *Master*
    Fecha de ingreso
    08 ene, 09
    Mensajes
    751

    Re: Descarga Pelicula "Dias de Ira" 2010Descarga Pelicula "Dias de Ira" 2010(Law Abid

    Graciasssssssssssssssssssssssss

  30. ramonet1969 está desconectado *Dios del FORO*
    Fecha de ingreso
    14 abr, 10
    Mensajes
    1,073

    Re: Descarga Pelicula "Dias de Ira" 2010Descarga Pelicula "Dias de Ira" 2010(Law Abid

    buen aporte

Página 1 de 6 123 ... ÚltimoÚltimo

Temas similares

  1. Respuestas: 226
    Último mensaje: 05/01/2014, 15:20
  2. Respuestas: 79
    Último mensaje: 07/08/2013, 18:05
  3. Aprende Inglés en 7 Días o te regreso tu descarga
    Por jesaes en el foro eBooks Gratis
    Respuestas: 111
    Último mensaje: 03/07/2012, 20:33
  4. Norton Internet Security 2010 v17.0.0.136 Espl[366 dias][MU]
    Por glad31 en el foro Antivirus Gratis
    Respuestas: 18
    Último mensaje: 01/02/2011, 04:51
  5. Descarga Dias de Clases-School Days [Anime Gratis]
    Por chkso en el foro Anime y Manga
    Respuestas: 82
    Último mensaje: 01/05/2010, 06:02