Contraband (2012) BRRip 700MB=1LiNK


Código:
INFOMATION 
 
IMDB :  http://www.imdb.com/title/tt1524137/

 
 
STORYLiNE: 
 
To protect his brother-in-law from a drug lord, a former smuggler heads  to Panama to score millions of dollars in counterfeit bills.  
 
RELEASE NOTES :  
Format                                   : AVI 
Format/Info                              : Audio Video Interleave 
File size                                : 701 MiB 
Duration                                 : 1h 49mn 
Overall bit rate                         : 895 Kbps 
 
Video 
ID                                       : 0 
Format                                   : MPEG-4 Visual 
Format profile                           : Advanced Simple@L5 
Format settings, BVOP                    : 2 
Format settings, QPel                    : No 
Format settings, GMC                     : No warppoints 
Format settings, Matrix                  : Default (H.263) 
Codec ID                                 : XVID 
Codec ID/Hint                            : XviD 
Duration                                 : 1h 49mn 
Bit rate                                 : 777 Kbps 
Width                                    : 640 pixels 
Height                                   : 272 pixels 
Display aspect ratio                     : 2.35:1 
Frame rate                               : 23.976 fps 
Color space                              : YUV 
Chroma subsampling                       : 4:2:0 
Bit depth                                : 8 bits 
Scan type                                : Progressive 
Compression mode                         : Lossy 
Bits/(Pixel*Frame)                       : 0.186 
Stream size                              : 609 MiB (87%) 
Writing library                          : XviD 1.2.1 (UTC 2008-12-04) 
 
Audio 
ID                                       : 1 
Format                                   : MPEG Audio 
Format version                           : Version 1 
Format profile                           : Layer 3 
Mode                                     : Joint stereo 
Codec ID                                 : 55 
Codec ID/Hint                            : MP3 
Duration                                 : 1h 49mn 
Bit rate mode                            : Constant 
Bit rate                                 : 112 Kbps 
Channel(s)                               : 2 channels 
Sampling rate                            : 44.1 KHz 
Compression mode                         : Lossy 
Stream size                              : 87.8 MiB (13%) 
Alignment                                : Aligned on interleaves 
Interleave, duration                     : 167 ms (4.00 video frames) 
Interleave, preload duration             : 208 ms 
Writing library                          : LAME3.99r 
Encoding settings                        : -m j -V 4 -q 2 -lowpass 15.6 -b 112

SCREENSHOTS :



DOWNLOAD :
Código:
http://rapidgator.net/file/19500298/Contraband.2012.BRrip.XViD.700.avi.html

http://lumfile.com/kbpy8i0oroef/Contraband.2012.BRrip.XViD.700.avi.html