Outpost Black Sun (2012) BDRip.XviD.AC3-ANALOG


Solo los usuarios registrados pueden ver los links de descarga. ¡Registrate ahora, ES GRATIS!
Complete name : Outpost.Black.Sun.2012.BDRip.Xvid.Ac3.ANALOG\O.B.S .BDR.ANALOG.avi
Format : AVI
Format/Info : Audio Video Interleave
File size : 1.53 GiB
Duration : 1h 41mn
Overall bit rate : 2 164 Kbps

Video
ID : 0
Format : MPEG-4 Visual
Format profile : Advanced Simple@L5
Format settings, BVOP : 2
Format settings, QPel : No
Format settings, GMC : No warppoints
Format settings, Matrix : Default (H.263)
Muxing mode : Packed bitstream
Codec ID : XVID
Codec ID/Hint : XviD
Duration : 1h 41mn
Bit rate : 1 773 Kbps
Width : 720 pixels
Height : 304 pixels
Display aspect ratio : 2.35:1
Frame rate : 23.976 fps
Color space : YUV
Chroma subsampling : 4:2:0
Bit depth : 8 bits
Scan type : Progressive
Compression mode : Lossy
Bits/(Pixel*Frame) : 0.338
Stream size : 1.25 GiB (82%)
Writing library : XviD 1.2.1 (UTC 2008-12-04)

Audio
ID : 1
Format : AC-3
Format/Info : Audio Coding 3
Mode extension : CM (complete main)
Codec ID : 2000
Duration : 1h 41mn
Bit rate mode : Constant
Bit rate : 384 Kbps
Channel(s) : 6 channels
Channel positions : Front: L C R, Side: L R, LFE
Sampling rate : 48.0 KHz
Bit depth : 16 bits
Compression mode : Lossy
Stream size : 278 MiB (18%)
Alignment : Aligned on interleaves
Interleave, duration : 64 ms (1.53 video frames)
Interleave, preload duration : 192 ms
Title : out.post.track_4352_remixed_dts
Sample : Yes
Source : Bluray(BD50) HDC THANX







...::: DOWNLOAD :::...
Código:
http://rapidgator.net/file/13188782/Outpost.Black.Sun.2012.BDRip.Xvid.Ac3.ANALOG.part1.rar.html
http://rapidgator.net/file/13188783/Outpost.Black.Sun.2012.BDRip.Xvid.Ac3.ANALOG.part2.rar.html
Código:
http://turbobit.net/1wvmztvpkm8a/Outpost.Black.Sun.2012.BDRip.Xvid.Ac3.ANALOG.part1.rar.html
http://turbobit.net/f7qs960a2zim/Outpost.Black.Sun.2012.BDRip.Xvid.Ac3.ANALOG.part2.rar.html