Resultados 1 al 3 de 3

Comando Especial (2012) - R5.LiNE.READNFO.XviD-BiDA.Sub.Esp (RG)(LTB)


Descargar Comando Especial (2012) - R5.LiNE.READNFO.XviD-BiDA.Sub.Esp (RG)(LTB) Gratis 1 link Full Comando Especial (2012) - R5.LiNE.READNFO.XviD-BiDA.Sub.Esp (RG)(LTB) por Mediafire con Crack, Serial, KeyGen Full Torrent

  1. PeterDotCom está desconectado *Novato reciente*
    Fecha de ingreso
    24 abr, 12
    Mensajes
    21

    Comando Especial (2012) - R5.LiNE.READNFO.XviD-BiDA.Sub.Esp (RG)(LTB)








    En la comedia de acción Comando Especial, Schmidt (Jonah Hill) y Jenko (Channing Tatum) están más que listos para dejar atrás sus problemas de la adolescencia. Uniéndose a la policía y a la unidad secreta Jump Street, ellos usan sus apariencias juveniles para ir encubiertos a la preparatoria local. A medida de que cambian sus armas e insignias por mochilas, Schmidt y Jenko arriesgan sus vidas para investigar una violenta y peligrosa red de narcotraficantes.

    Mediainfo

    Código:
          Complete name : 21.Jump.Street.2012.R5.LiNE.READNFO.XviD-BiDA.avi
          Format : AVI
          Format/Info : Audio Video Interleave
          File size : 701 MiB
          Duration : 1h 45mn
          Overall bit rate : 930 Kbps
          Writing application : VirtualDubMod 1.5.10.3 | www.virtualdub-fr.org || (build 2550/release)
          Writing library : VirtualDub build 32842/release
       Video #0
          ID : 0
          Format : MPEG-4 Visual
          Format profile : AdvancedSimple@L5
          Format settings, BVOP : Yes
          Format settings, QPel : No
          Format settings, GMC : No warppoints
          Format settings, Matrix : Custom
          Codec ID : XVID
          Codec ID/Hint : XviD
          Duration : 1h 45mn
          Bit rate : 792 Kbps
          Width : 672 pixels
          Height : 272 pixels
          Display aspect ratio : 2.471
          Frame rate : 25.000 fps
          Resolution : 24 bits
          Colorimetry : 4:2:0
          Scan type : Progressive
          Bits/(Pixel*Frame) : 0.173
          Stream size : 597 MiB (85%)
          Writing library : XviD 1.2.1 (UTC 2008-12-04)
       Audio #1
          ID : 1
          Format : MPEG Audio
          Format version : Version 1
          Format profile : Layer 3
          Codec ID : 55
          Codec ID/Hint : MP3
          Duration : 1h 45mn
          Bit rate mode : Constant
          Bit rate : 128 Kbps
          Channel(s) : 2 channels
          Sampling rate : 44.1 KHz
          Resolution : 16 bits
          Stream size : 96.6 MiB (14%)
          Alignment : Split accross interleaves
          Interleave, duration : 40 ms (1.00 video frame)
          Interleave, preload duration : 500 ms


    Título original: 21 Jump Street
    Título en español: Comando Especial
    Reparto: Channing Tatum, Jonah Hill
    Director: Phil Lord, Chris Miller
    Escritor: Joe Gazzam, Jonah Hill, Michael Bacall
    Género: Acción/Aventuras, Comedia
    País(es): Estados Unidos
    Idioma(s): Inglés
    Subtítulos: Español
    Duración: 109 min.
    Distribuidor: Sony Pictures

















    Contenido Oculto Este post contiene información oculta, debes contestar el post o hacer click en el botón 'Gracias' para ver el contenido.






  2. MatiasgoN está desconectado *User Avanzado*
    Fecha de ingreso
    11 jul, 08
    Mensajes
    105

    Re: Comando Especial (2012) - R5.LiNE.READNFO.XviD-BiDA.Sub.Esp (RG)(LTB)

    muchas gracias amigo

  3. janoito está desconectado *User Avanzado*
    Fecha de ingreso
    26 may, 08
    Mensajes
    100

    Re: Comando Especial (2012) - R5.LiNE.READNFO.XviD-BiDA.Sub.Esp (RG)(LTB)

    gracias port u aporte
    un abrazo.

Temas similares

  1. 21 Jump Street (2012) R5.LiNE.READNFO.XviD-BiDA
    Por xxxmateusz00xxx en el foro Moviez Peliculas
    Respuestas: 0
    Último mensaje: 01/05/2012, 17:22
  2. 21 Jump Street 2012 R5 LiNE READNFO XviD-BiDA 1LINK [Inglés]
    Por Lelin14 en el foro Moviez Peliculas
    Respuestas: 5
    Último mensaje: 01/05/2012, 05:28
  3. 21 Jump Street (2012) R5.LiNE.READNFO.XviD-BiDA
    Por xxxmateusz00xxx en el foro Moviez Peliculas
    Respuestas: 0
    Último mensaje: 30/04/2012, 16:11
  4. 21 Jump Street 2012 R5 LiNE READNFO XviD-BiDA
    Por up4y en el foro Moviez Peliculas
    Respuestas: 0
    Último mensaje: 30/04/2012, 13:31