Night.Vision.2011.HDTV.AC3-5.1.XviD-SiC



IMDB Link:

Solo los usuarios registrados pueden ver los links de descarga. ¡Registrate ahora, ES GRATIS!

Description:

A womanizing reality-TV producer (Spencer) unwittingly sleeps with a mysterious woman (Alison), who turns out to be his own stalker. Alison then kidnaps Spencer and holds him hostage while she humiliates and abuses him, recording every moment on camera for her own twisted reality-TV show.

MediaInfo:

General
Complete name : Night.Vision.2011.HDTV.AC3-5.1.XviD-SiC.avi
Format : AVI
Format/Info : Audio Video Interleave
File size : 1.36 GiB
Duration : 1h 28mn
Overall bit rate : 2 210 Kbps

Video

ID : 0
Format : MPEG-4 Visual
Format profile : Advanced Simple@L5
Format settings, BVOP : 2
Format settings, QPel : No
Format settings, GMC : No warppoints
Format settings, Matrix : Default (H.263)
Muxing mode : Packed bitstream
Codec ID : XVID
Codec ID/Hint : XviD
Duration : 1h 28mn
Bit rate : 1 816 Kbps
Width : 720 pixels
Height : 400 pixels
Display aspect ratio : 16:9
Frame rate : 23.976 fps
Color space : YUV
Chroma subsampling : 4:2:0
Bit depth : 8 bits
Scan type : Progressive
Compression mode : Lossy
Bits/(Pixel*Frame) : 0.263
Stream size : 1.12 GiB (82%)
Writing library : XviD 1.1.2 (UTC 2006-11-01)

Audio

ID : 1
Format : AC-3
Format/Info : Audio Coding 3
Mode extension : CM (complete main)
Codec ID : 2000
Duration : 1h 28mn
Bit rate mode : Constant
Bit rate : 384 Kbps
Channel(s) : 6 channels
Channel positions : Front: L C R, Side: L R, LFE
Sampling rate : 48.0 KHz
Bit depth : 16 bits
Compression mode : Lossy
Stream size : 242 MiB (17%)
Alignment : Split accross interleaves
Interleave, duration : 42 ms (1.00 video frame)
Interleave, preload duration : 500 ms
Código:
http://www.fastshare.cz/1415230/night.vision.2011.hdtv.ac3-5.1.xvid-sic.rar