TITULO ORIGINAL

TÍTULO: Another Earth
AÑO: 2011
PAÍS: Estados Unidos
DIRECTOR: Mike Cahill
GUIÓN: Mike Cahill, Brit Marling
MÚSICA: Fall On Your Sword
FOTOGRAFÍA: Mike Cahill
GÉNERO: Ciencia ficción. Drama. Romance | Cine independiente USA
REPARTO: Brit Marling, William Mapother, Jordan Baker, Flint Beverage, Robin Taylor
PRODUCTORA: Fox Searchlight Pictures / Artists Public Domain
PREMIOS: 2011: Festival de Sundance: Premio Especial del Jurado - Drama
2011: Festival de Sitges: Mejor actriz (Brit Marling)
2011: Premios Gotham: Nominada a Mejor director
2011: Independent Spirit Awards: Nominada a Mejor ópera prima y mejor guión novel


TRAILER
[YOUTUBE]N8hEwMMDtFY[/YOUTUBE]
SINOPSIS
Rhoda Williams, una brillante joven que acaba de ser aceptada en un programa de astrofísica del MIT, aspira a explorar el universo. John Burroughs, un compositor que acaba de alcanzar la cima de su carrera, está a punto de ser padre por segunda vez. Rhoda y John no se conocen, pero la víspera del descubrimiento de un Planeta Tierra duplicado tiene lugar una horrible tragedia que entrelaza y altera de modo irreversible sus vidas.


INFORMACION
Código:
Video
ID                               : 224 (0xE0)
Format                           : MPEG Video
Format version                   : Version 1
Format settings, BVOP            : Yes
Format settings, Matrix          :CUSTOM
Duration                         : 1h 32mn
Bit rate mode                    : Variable
Bit rate                         : 962 Kbps
Width                            : 352 pixels
Height                           : 240 pixels
Display aspect ratio             : 3:2
Frame rate                       : 29.970 fps
Standard                         : NTSC
Color space                      : YUV
Bit depth                        : 8 bits
Scan type                        : Progressive
Compression mode                 : Lossy
Bits/(Pixel*Frame)               : 0.380
Stream size                      : 636 MiB (86%)
Writing library                  : TMPGEnc XPress 4.7.6.304

Audio
ID                               : 192 (0xC0)
Format                           : MPEG Audio
Format version                   : Version 1
Format profile                   : Layer 2
Duration                         : 1h 32mn
Bit rate mode                    : Constant
Bit rate                         : 128 Kbps
Channel(s)                       : 2 channels
Sampling rate                    : 44.1 KHz
Compression mode                 : Lossy
Stream size                      : 84.6 MiB (12%)
CAPTURAS




FILESERVE
Contenido Oculto Este post contiene información oculta, debes contestar el post o hacer click en el botón 'Gracias' para ver el contenido.