The Darkest Hour 2011 TS Kvcd Subtitulada Español [UL-FJ][1-LINK]






Título original: The Darkest Hour
Título latino: La hora más oscura
Año: 2011
País: USA, Alemania, Francia, UK
Duración: 89 min.
Genero: Acción, Terror, Ciencia Ficción
Estreno en USA: 25/12/2011
Productora: Summit Entertainment
Director: Chris Gorak
Guión: M.T. Ahern, Les Bohem & Jon Spaihts
Reparto: Rachael Taylor, Emile Hirsch, Olivia Thirlby, Joel Kinnaman, Max Minghella, Elena Caruso, Dato Bakhtadze, Yuriy Kutsenko, Artur Smolyaninov, Veronika Ozerova, Pyotr Fyodorov, Vladimir Jaglich
Productor: Timur Bekmambetov, Tom Jacobson



Cuando un inexplicable desastre mundial arrasa el mundo, causando fallos en los dispositivos eléctricos, un grupo de estadounidenses y británicos de visita en Moscú se verán atrapados en la ciudad. El caos asola cuando la población empieza a ser perseguida y asesinada por una fuerza desconocida. Unidos por el miedo, se las arreglarán para encontrar un refugio subterráneo sobreviviendo con lo que pueden.

Cinco días después emergen sobre una ciudad fantasma, antes llena de vida, pero a medida que exploran en busca de supervivientes se dan cuenta de que la amenaza todavía sigue presente. Deberán unirse, aprender, y adaptarse lo más rápido posible para poder protegerse si quieren sobrevivir.



Format : MPEG-PS
File size : 368 MiB
Duration : 1h 23mn
Overall bit rate : 620 Kbps
Writing library : encoded by TMPGEnc (ver. 2.525.64.184)
Video #224
ID : 224 (0xE0)
Format : MPEG Video
Format version : Version 1
Format settings, BVOP : Yes
Format settings, Matrix : Custom
Duration : 1h 23mn
Bit rate mode : Variable
Bit rate : 480 Kbps
Width : 352 pixels
Height : 240 pixels
Display aspect ratio : 4:3
Frame rate : 23.976 fps
Standard : NTSC
Color space: YUV
Bit depth : 8 bits
Scan type : Progressive
Compression mode : Lossy
Bits/(Pixel*Frame) : 0.237
Stream size : 285 MiB (77%)
Writing library : TMPGEnc 2.525.64.184
Audio #192
ID : 192 (0xC0)
Format : MPEG Audio
Format version : Version 1
Format profile : Layer 2
Mode : Dual mono
Duration : 1h 23mn
Bit rate mode : Constant
Bit rate : 128 Kbps
Channel(s) : 2 channels
Sampling rate : 44.1 KHz
Compression mode : Lossy
Stream size : 76.0 MiB (21%)











LINK INTERCAMBIABLES DE 500MB


Contenido Oculto Este post contiene información oculta, debes contestar el post o hacer click en el botón 'Gracias' para ver el contenido.




Contenido Oculto Este post contiene información oculta, debes contestar el post o hacer click en el botón 'Gracias' para ver el contenido.