Resultados 1 al 5 de 5
Like Tree1Likes
  • 1 Post By ten1010

11-11-11 [DVDRip] [Ing. Sub español]( FLS)


Descargar 11-11-11 [DVDRip] [Ing. Sub español]( FLS) Gratis 1 link Full 11-11-11 [DVDRip] [Ing. Sub español]( FLS) por Mediafire con Crack, Serial, KeyGen Full Torrent

  1. ten1010 está desconectado *User Avanzado*
    Fecha de ingreso
    12 nov, 11
    Mensajes
    118

    11-11-11 [DVDRip] [Ing. Sub español]( FLS)




    Solo los usuarios registrados pueden ver los links de descarga. ¡Registrate ahora, ES GRATIS!

    Ficha Tecnica

    TÍTULO EN ESPAÑOL: 11-11-11
    AÑO: 2011
    DURACIÓN: 90 min.
    PAÍS : Estados Unidos
    DIRECTOR: Keith Allan
    FORMATO: AVI
    CALIDAD: DVDRIP
    CALIFICACION DE IMDB: -/10
    TAMAÑO DEL ARCHIVO: 716 MB
    REPARTO :
    Jon Briddell, Hayden Byerly, Erin Coker.

    Sinopsis

    Después de haber perdido a su mujer y su hijo en circunstancias trágicas y que asiste regularmente a terapias para su recuperación; Richard, su padre y cura de una pequeña congregación rural es víctima de una grave enfermedad que lo mantiene al borde de la muerte; y su hermano, también cura, se encuentra postrado en una silla de ruedas. Una família que ha permanecido sin apenas comunicarse durante muchos años y que finalmente se encuentra cuando Joseph decide viajar hasta su pueblo natal para despedirse de su padre cuando éste se encuentra en su fase más crítica. La situación se volverá a la vez más complicada cuando Joseph empieza a sufrir una serie de pesadillas y visiones relacionadas con el mismo fenómeno del 11:11, un fenómeno que se verá entrelazado con una serie de extraños sucesos que llevan sucediéndose en la iglesia colindante a su vivienda.La llegada de esa fecha y el presentimiento de que traerá desgracias mayores sobre los miembros de la família de Joseph, creará una situación cargada de una insostenible tensión dramática en la que todo se desarrollará de un modo impredicible.

    Capturas


    Solo los usuarios registrados pueden ver los links de descarga. ¡Registrate ahora, ES GRATIS!

    Codigo pelicula

    [spoiler]

    General
    Complete name : files/FECHA-CAPICUA-.avi
    Format : AVI
    Format/Info : Audio Video Interleave
    File size : 716 MiB
    Duration : 1h 32mn
    Overall bit rate : 1 078 Kbps
    Writing application : MEncoder 1.0rc2-4.2.4
    Writing library : MPlayer

    Video
    ID : 0
    Format : MPEG-4 Visual
    Format profile : Simple@L1
    Format settings, BVOP : No
    Format settings, QPel : No
    Format settings, GMC : No warppoints
    Format settings, Matrix : Default (H.263)
    Codec ID : XVID
    Codec ID/Hint : XviD
    Duration : 1h 32mn
    Bit rate : 1 017 Kbps
    Width : 720 pixels
    Height : 304 pixels
    Display aspect ratio : 2.35:1
    Frame rate : 25.000 fps
    Color space : YUV
    Chroma subsampling : 4:2:0
    Bit depth : 8 bits
    Scan type : Progressive
    Bits/(Pixel*Frame) : 0.186
    Stream size : 676 MiB (94%)
    Writing library : Lavc51.44.0

    Audio
    ID : 1
    Format : MPEG Audio
    Format version : Version 1
    Format profile : Layer 3
    Codec ID : 55
    Codec ID/Hint : MP3
    Duration : 1h 32mn
    Bit rate mode : Constant
    Bit rate : 48.0 Kbps
    Channel(s) : 1 channel
    Sampling rate : 44.1 KHz
    Stream size : 31.9 MiB (4%)
    Alignment : Aligned on interleaves
    Interleave, duration : 26 ms (0.65 video frame)
    Interleave, preload duration : 522 ms



    [/spoiler]

    Solo los usuarios registrados pueden ver los links de descarga. ¡Registrate ahora, ES GRATIS!

    Contenido Oculto Este post contiene información oculta, debes contestar el post o hacer click en el botón 'Gracias' para ver el contenido.


    Descargar Aqui

    Kei11 likes this.



  2. alex vega 666 está desconectado *Novato reciente*
    Fecha de ingreso
    04 ene, 12
    Mensajes
    5

    Re: 11-11-11 [DVDRip] [Ing. Sub español]( FLS)

    descargar la pelicula que este subtitulada en español

  3. fede007 está desconectado *Novato reciente*
    Fecha de ingreso
    15 jul, 09
    Mensajes
    14

    Re: 11-11-11 [DVDRip] [Ing. Sub español]( FLS)

    buena buena

  4. vidpinlo está desconectado *Novato reciente*
    Fecha de ingreso
    15 ago, 09
    Mensajes
    20

    Re: 11-11-11 [DVDRip] [Ing. Sub español]( FLS)

    grax a ver que tal

  5. Kei11 está desconectado *Novato reciente*
    Fecha de ingreso
    10 jun, 14
    Mensajes
    2

    Re: 11-11-11 [DVDRip] [Ing. Sub español]( FLS)

    Está off
    Última edición por Kei11; 10/06/2014 a las 21:43

Temas similares

  1. Agarrame Esos Fantasmas [Dvdrip Comedia Español/Español 1996]
    Por djrey18 en el foro Peliculas DVDRip en Castellano
    Respuestas: 3
    Último mensaje: 24/01/2013, 10:54
  2. Harry Potter Coleccion 1 al 6 DVDRip XviD Español Latino & Español España
    Por cargohe en el foro Peliculas DVDRip en Español Latino
    Respuestas: 368
    Último mensaje: 01/02/2012, 01:08
  3. Respuestas: 7
    Último mensaje: 04/08/2011, 09:40