Resultados 1 al 8 de 8

Los Soprano T.4 [HDTV] [ESP] [500Mb] [13/13] [FS/US/WU]


Descargar Los Soprano T.4 [HDTV] [ESP] [500Mb] [13/13] [FS/US/WU] Gratis 1 link Full Los Soprano T.4 [HDTV] [ESP] [500Mb] [13/13] [FS/US/WU] por Mediafire con Crack, Serial, KeyGen Full Torrent

  1. Avatar de Nukety
    Nukety está desconectado Uploader
    Fecha de ingreso
    16 jun, 11
    Mensajes
    2,702

    Los Soprano T.4 [HDTV] [DUAL] [500MB] [13/13][UL SF LE DF] 1 Link


    Los Soprano | Temporada 04 | Capitulos [13/13]



    · · · · · · · · · · · · · · · : : | Ficha Técnica | : : · · · · · · · · · · · · · · ·

    Título: Los Soprano
    Título Original: The Sopranos
    Año: 1999
    País: USA
    Duración: 50 min.
    Género: Thriller | Drama
    Creador: David Chase
    Productora: HBO


    · · · · · · · · · · · · · · · : : | Reparto | : : · · · · · · · · · · · · · · ·


    ★ Lorraine Bracco ★ James Gandolfini ★ Edie Falco ★ Michael Imperioli ★ Tony Sirico ★ Dominic Chianese ★ Jamie-Lynn Sigler ★ Steve Van Zandt ★ Robert Iler ★ Aida Turturro

    · · · · · · · · · · · · · · · : : | Sinopsis | : : · · · · · · · · · · · · · · ·

    Los Soprano es una serie que cuenta las vivencias de una familia de la mafia italiana instalada en New Jersey. Su protagonista, Tony Soprano, intenta ser un buen hombre de familia en todos los sentidos, tanto con su mujer, hijos y enviudada madre, como ejerciendo de capo de la mafia en Nueva Jersey. Las presiones del trabajo y la vida familiar le causan una serie de ataques de ansiedad que le obligan a recibir terapia psiquiátrica, algo que ha de guardarse para sí mismo ya que no es la clase de información que alguien que se mueve en su “círculo” deba compartir.
    La familia Soprano no es un modelo idílico. El matrimonio del protagonista con Carmela (Edie Falco) no funciona bien debido a la profesión de Tony y su madre, Livia Soprano (Nancy Marchand), la viuda del antiguo jefe de la familia Soprano, es una anciana que le irrita en numerosas ocasiones.
    Además, los problemas que conlleva criar a dos hijos adolescentes, un hijo indisciplinado, Anthony Soprano Jr. (Robert Iler), y Meadow Soprano (Jamie-Lynn Sigler), una universitaria con la que prácticamente no habla, se suman al estrés que le provoca la responsabilidad de enfrentarse cada día a nuevas situaciones de trabajo con sus socios Silvio Dante (Steve Van Zandt) y Paulie Walnuts (Tony Sirico), su sobrino Christopher Moltisanti (Michael Imperioli) y su tío Corrado “Junior” Soprano (Dominic Chianese), hermano de su difunto padre y con el que no mantiene muy buena relación.
    La presión que le provoca intentar compaginar estas dos vidas y los ataques de ansiedad que sufre, llevan a Tony a la terapia de la doctora Jennifer Melfi (Lorraine Bracco), una psiquiatra con experiencia que ayudará al protagonista a resolver sus dudas existenciales.



    WebSite Solo los usuarios registrados pueden ver los links de descarga. ¡Registrate ahora, ES GRATIS!
    FilmAffinity Solo los usuarios registrados pueden ver los links de descarga. ¡Registrate ahora, ES GRATIS!
    IMDB Solo los usuarios registrados pueden ver los links de descarga. ¡Registrate ahora, ES GRATIS!
    YouTube http://www.youtube.com/v/QNrzz_acqWI


    · · · · · · · · · · · · · · · : : | Media Info | : : · · · · · · · · · · · · · · ·

    Temporada: 04
    Nº de Capitulos: 13
    Rip: DVDRip
    Formato: 480p
    Contenedor: AVI
    Audio: Castellano e Inglés
    Tamaño: 750 MB
    Rippeo: Eugen
    Media Info
    Código:
    General
    Complete name                            : I:\[ Up-Save ]\Los Soprano - 4x11 [Nukety].avi
    Format                                   : AVI
    Format/Info                              : Audio Video Interleave
    File size                                : 626 MiB
    Duration                                 : 46mn 3s
    Overall bit rate                         : 1 900 Kbps
    Movie name                               : Los Soprano 4x11 Llamando a todas las unidades [DvDrip][XviD-mp3-Dual][by-Eugen]
    Writing application                      : VirtualDubMod 1.5.10.2 (build 2540/release)
    Writing library                          : VirtualDubMod build 2540/release
    
    Video
    ID                                       : 0
    Format                                   : MPEG-4 Visual
    Format profile                           : Advanced Simple@L5
    Format settings, BVOP                    : 2
    Format settings, QPel                    : No
    Format settings, GMC                     : No warppoints
    Format settings, Matrix                  : Default (H.263)
    Codec ID                                 : XVID
    Codec ID/Hint                            : XviD
    Duration                                 : 46mn 3s
    Bit rate                                 : 1 502 Kbps
    Width                                    : 704 pixels
    Height                                   : 396 pixels
    Display aspect ratio                     : 16:9
    Frame rate                               : 25.000 fps
    Color space                              : YUV
    Chroma subsampling                       : 4:2:0
    Bit depth                                : 8 bits
    Scan type                                : Progressive
    Compression mode                         : Lossy
    Bits/(Pixel*Frame)                       : 0.215
    Stream size                              : 495 MiB (79%)
    Writing library                          : XviD 1.2.1 (UTC 2008-12-04)
    
    Audio #1
    ID                                       : 1
    Format                                   : MPEG Audio
    Format version                           : Version 1
    Format profile                           : Layer 3
    Mode                                     : Joint stereo
    Codec ID                                 : 55
    Codec ID/Hint                            : MP3
    Duration                                 : 46mn 3s
    Bit rate mode                            : Constant
    Bit rate                                 : 192 Kbps
    Channel(s)                               : 2 channels
    Sampling rate                            : 48.0 KHz
    Compression mode                         : Lossy
    Stream size                              : 63.2 MiB (10%)
    Alignment                                : Aligned on interleaves
    Interleave, duration                     : 40 ms (1.00 video frame)
    Interleave, preload duration             : 504 ms
    Title                                    : Spanish
    
    Audio #2
    ID                                       : 2
    Format                                   : MPEG Audio
    Format version                           : Version 1
    Format profile                           : Layer 3
    Mode                                     : Joint stereo
    Codec ID                                 : 55
    Codec ID/Hint                            : MP3
    Duration                                 : 46mn 3s
    Bit rate mode                            : Constant
    Bit rate                                 : 192 Kbps
    Channel(s)                               : 2 channels
    Sampling rate                            : 48.0 KHz
    Compression mode                         : Lossy
    Stream size                              : 63.3 MiB (10%)
    Alignment                                : Aligned on interleaves
    Interleave, duration                     : 40 ms (1.00 video frame)
    Interleave, preload duration             : 504 ms
    Title                                    : English
    · · · · · · · · · · · · · · · : : | Links | : : · · · · · · · · · · · · · · ·

    Contenido Oculto Este post contiene información oculta, debes contestar el post o hacer click en el botón 'Gracias' para ver el contenido.

    · · · · · · · · · · · · · · · · · · · · · · · · · · · · · · · · · · · · · · · · · ·

    Visita mi Perfil para ver MI CATALOGO de Series | Temporadas en Defición Estándar y Alta Definición
    Última edición por Nukety; 30/03/2013 a las 14:11
    Todos mis aportes los subiré a Uploaded, si necesitas una cuenta premium en Up.to anímate y hazlo a través de mi link de referido Solo los usuarios registrados pueden ver los links de descarga. ¡Registrate ahora, ES GRATIS!
    La contraseña de los aportes es "Nukety"



  2. pablitok7 está desconectado *Novato Avanzado*
    Fecha de ingreso
    22 ene, 12
    Mensajes
    30

    Re: Los Soprano T.4 [HDTV] [ESP] [500Mb] [13/13] [FS/US/WU]

    ssssssssssssssssssssssssssssssss

  3. Avatar de Nukety
    Nukety está desconectado Uploader
    Fecha de ingreso
    16 jun, 11
    Mensajes
    2,702

    Re: Los Soprano T.4 [HDTV] [ESP] [500Mb] [13/13] [FS/US/WU]

    . : : ⇪ Aporte Resubido : : .
    Todos mis aportes los subiré a Uploaded, si necesitas una cuenta premium en Up.to anímate y hazlo a través de mi link de referido Solo los usuarios registrados pueden ver los links de descarga. ¡Registrate ahora, ES GRATIS!
    La contraseña de los aportes es "Nukety"

  4. jordisoler19 está desconectado *Novato reciente*
    Fecha de ingreso
    28 jun, 11
    Mensajes
    25

    Re: Los Soprano T.4 [HDTV] [ESP] [500Mb] [13/13] [FS/US/WU]

    graaaaaaaaacias

  5. celulosas2 está desconectado *Novato reciente*
    Fecha de ingreso
    28 feb, 11
    Mensajes
    17

    Re: Los Soprano T.4 [HDTV] [ESP] [500Mb] [13/13] [FS/US/WU]

    Thanksssss

  6. kimi78464 está desconectado *Novato reciente*
    Fecha de ingreso
    21 mar, 11
    Mensajes
    20

    Re: Los Soprano T.4 [HDTV] [DUAL] [500MB] [13/13][UL SF LE DF] 1 Link

    graciasssssssssssssssssssssssssssssssss
    Cita Iniciado por Nukety Ver mensaje
    Los Soprano | Temporada 4 | Capitulos [13/13]



    Título: Los Soprano
    Título Original: The Sopranos
    Año: 1999
    País: USA
    Duración: 50 min.
    Género: Thriller | Drama
    Creador: David Chase
    Productora: HBO



    Sinopsis: Los Soprano es una serie que cuenta las vivencias de una familia de la mafia italiana instalada en New Jersey. Su protagonista, Tony Soprano, intenta ser un buen hombre de familia en todos los sentidos, tanto con su mujer, hijos y enviudada madre, como ejerciendo de capo de la mafia en Nueva Jersey. Las presiones del trabajo y la vida familiar le causan una serie de ataques de ansiedad que le obligan a recibir terapia psiquiátrica, algo que ha de guardarse para sí mismo ya que no es la clase de información que alguien que se mueve en su “círculo” deba compartir.
    La familia Soprano no es un modelo idílico. El matrimonio del protagonista con Carmela (Edie Falco) no funciona bien debido a la profesión de Tony y su madre, Livia Soprano (Nancy Marchand), la viuda del antiguo jefe de la familia Soprano, es una anciana que le irrita en numerosas ocasiones.
    Además, los problemas que conlleva criar a dos hijos adolescentes, un hijo indisciplinado, Anthony Soprano Jr. (Robert Iler), y Meadow Soprano (Jamie-Lynn Sigler), una universitaria con la que prácticamente no habla, se suman al estrés que le provoca la responsabilidad de enfrentarse cada día a nuevas situaciones de trabajo con sus socios Silvio Dante (Steve Van Zandt) y Paulie Walnuts (Tony Sirico), su sobrino Christopher Moltisanti (Michael Imperioli) y su tío Corrado “Junior” Soprano (Dominic Chianese), hermano de su difunto padre y con el que no mantiene muy buena relación.
    La presión que le provoca intentar compaginar estas dos vidas y los ataques de ansiedad que sufre, llevan a Tony a la terapia de la doctora Jennifer Melfi (Lorraine Bracco), una psiquiatra con experiencia que ayudará al protagonista a resolver sus dudas existenciales.

    [YOUTUBE]http://www.youtube.com/watch?v=QNrzz_acqWI[/YOUTUBE]

    Solo los usuarios registrados pueden ver los links de descarga. ¡Registrate ahora, ES GRATIS! Solo los usuarios registrados pueden ver los links de descarga. ¡Registrate ahora, ES GRATIS! Solo los usuarios registrados pueden ver los links de descarga. ¡Registrate ahora, ES GRATIS!

    Temporada: 4
    Nº de Capitulos: 13
    Rip: HDTV
    Formato: 480p
    Contenedor: AVI
    Audio: Castellano e Inglés
    Tamaño: 500MB
    Rippeo: Vagamun2
    Media Info
    Código:
    Format                           : AVI
    Format/Info                      : Audio Video Interleave
    File size                        : 550 MiB
    Duration                         : 55mn 30s
    Overall bit rate                 : 1 385 Kbps
    Writing application              : VirtualDubMod 1.5.4.1 (build 2178/release)
    Writing library                  : VirtualDubMod build 2178/release
    
    Video
    ID                               : 0
    Format                           : MPEG-4 Visual
    Format profile                   : Advanced Simple@L5
    Format settings, BVOP            : 1
    Format settings, QPel            : No
    Format settings, GMC             : No warppoints
    Format settings, Matrix          : Custom
    Codec ID                         : XVID
    Codec ID/Hint                    : XviD
    Duration                         : 55mn 30s
    Bit rate                         : 609 Kbps
    Width                            : 720 pixels
    Height                           : 400 pixels
    Display aspect ratio             : 16:9
    Frame rate                       : 25.000 fps
    Color space                      : YUV
    Chroma subsampling               : 4:2:0
    Bit depth                        : 8 bits
    Scan type                        : Progressive
    Compression mode                 : Lossy
    Bits/(Pixel*Frame)               : 0.085
    Stream size                      : 242 MiB (44%)
    Writing library                  : XviD 1.2.0.dev47 (UTC 2006-11-01)
    
    Audio #1
    ID                               : 1
    Format                           : AC-3
    Format/Info                      : Audio Coding 3
    Mode extension                   : CM (complete main)
    Codec ID                         : 2000
    Duration                         : 55mn 30s
    Bit rate mode                    : Constant
    Bit rate                         : 384 Kbps
    Channel(s)                       : 6 channels
    Channel positions                : Front: L C R, Side: L R, LFE
    Sampling rate                    : 48.0 KHz
    Bit depth                        : 16 bits
    Compression mode                 : Lossy
    Stream size                      : 152 MiB (28%)
    Alignment                        : Aligned on interleaves
    Interleave, duration             : 96 ms (2.40 video frames)
    Interleave, preload duration     : 96 ms
    Language                         : Spanish
    
    Audio #2
    ID                               : 2
    Format                           : AC-3
    Format/Info                      : Audio Coding 3
    Mode extension                   : CM (complete main)
    Codec ID                         : 2000
    Duration                         : 55mn 30s
    Bit rate mode                    : Constant
    Bit rate                         : 384 Kbps
    Channel(s)                       : 6 channels
    Channel positions                : Front: L C R, Side: L R, LFE
    Sampling rate                    : 48.0 KHz
    Bit depth                        : 16 bits
    Compression mode                 : Lossy
    Stream size                      : 152 MiB (28%)
    Alignment                        : Aligned on interleaves
    Interleave, duration             : 96 ms (2.40 video frames)
    Interleave, preload duration     : 96 ms
    Language                         : English
    Links Temporada 4hidden content may not be quoted

  7. kimi78464 está desconectado *Novato reciente*
    Fecha de ingreso
    21 mar, 11
    Mensajes
    20

    Re: Los Soprano T.4 [HDTV] [DUAL] [500MB] [13/13][UL SF LE DF] 1 Link

    graciassssssssss por el aporteeeee

  8. Avatar de Nukety
    Nukety está desconectado Uploader
    Fecha de ingreso
    16 jun, 11
    Mensajes
    2,702

    Re: Los Soprano T.4 [HDTV] [DUAL] [500MB] [13/13][UL SF LE DF] 1 Link

    . : : ⇪ Aporte Resubido : : .
    Todos mis aportes los subiré a Uploaded, si necesitas una cuenta premium en Up.to anímate y hazlo a través de mi link de referido Solo los usuarios registrados pueden ver los links de descarga. ¡Registrate ahora, ES GRATIS!
    La contraseña de los aportes es "Nukety"

Temas similares

  1. Juego de Tronos T.1 [HDTV] [ESP] [500Mb] [10/10] [FS/US/WU]
    Por Nukety en el foro Descargar Series de TV Gratis
    Respuestas: 16
    Último mensaje: 13/04/2014, 12:30
  2. Los Soprano T.5 [HDTV] [ESP] [550Mb] [13/13] [FS/US/WU]
    Por Nukety en el foro Descargar Series de TV Gratis
    Respuestas: 4
    Último mensaje: 06/04/2013, 10:54
  3. Los Soprano T.6 [HDTV] [ESP] [400Mb] [21/21] [FS/US/WU]
    Por Nukety en el foro Descargar Series de TV Gratis
    Respuestas: 4
    Último mensaje: 27/12/2012, 10:09
  4. Los Soprano 4ª Temporada vos HDTV
    Por Elandan en el foro Descargar Series de TV Gratis
    Respuestas: 0
    Último mensaje: 24/08/2011, 21:38
  5. House T.06 [DVB+HDTV][Español][400-500Mb][22/22][MU/HF/FS]
    Por israntxa en el foro Descargar Series de TV Gratis
    Respuestas: 0
    Último mensaje: 12/11/2010, 09:44

Etiquetas para este tema