AÑO: 2012
DURACIÓN: 50 min.
PAÍS: Estados Unidos
DIRECTOR: Ryan Murphy (Creator), Brad Falchuk (Creator), Bradley Buecker
GUIÓN: Ryan Murphy, Brad Falchuk
REPARTO: Jessica Lange, Zachary Quinto, Evan Peters, Sarah Paulson, Lily Rabe, Adam Levine, Jenna Dewan, Lizzie Brocheré, Chloë Sevigny, Ian McShane, James Cromwell, Joseph Fiennes, Mark Consuelos, Clea DuVall, Franka Potente, Britne Oldford, Chris Zylka, Jensen Ackles, Dakota Fanning, Martha Besse
PRODUCTORA: FX
GÉNERO : Serie de TV. Terror. Thriller | Sobrenatural

SINOPSIS : Serie de TV (2012). American Horror Story: Asylum es el nombre de la segunda temporada de la serie American Horror Story, que cambia personajes protagonistas, reparto, equipo técnico y escenario con respecto a la primera, desarrollándose como un drama psicológico en un hospital psiquiátrico.

Comprimido con winrar sin contraseña.

MEDIA INFO:
Código:
Format                                   : Matroska
Format version                           : Version 4 / Version 2
File size                                : 498 MiB
Duration                                 : 42mn 47s
Overall bit rate                         : 1 628 Kbps
Encoded date                             : UTC 2010-02-22 21:41:31
Writing application                      : mkvmerge v5.9.0 ('On The Loose') built on Dec  9 2012 15:37:01
Writing library                          : libebml v1.3.0 + libmatroska v1.4.0

Video
ID                                       : 1
Format                                   : AVC
Format/Info                              : Advanced Video Codec
Format profile                           : Main@L3.1
Format settings, CABAC                   : Yes
Format settings, ReFrames                : 4 frames
Codec ID                                 : V_MPEG4/ISO/AVC
Duration                                 : 42mn 47s
Bit rate                                 : 1 500 Kbps
Width                                    : 1 280 pixels
Height                                   : 718 pixels
Display aspect ratio                     : 16:9
Frame rate mode                          : Constant
Frame rate                               : 23.976 fps
Color space                              : YUV
Chroma subsampling                       : 4:2:0
Bit depth                                : 8 bits
Scan type                                : Progressive
Bits/(Pixel*Frame)                       : 0.068
Stream size                              : 449 MiB (90%)
Writing library                          : x264 core 120
Encoding settings                        : cabac=1 / ref=1 / deblock=1:0:0 / analyse=0x1:0x111 / me=hex / subme=2 / psy=1 / psy_rd=1.00:0.00 / mixed_ref=0 / me_range=16 / chroma_me=1 / trellis=0 / 8x8dct=0 / cqm=0 / deadzone=21,11 / fast_pskip=1 / chroma_qp_offset=0 / threads=12 / sliced_threads=0 / nr=0 / decimate=1 / interlaced=0 / bluray_compat=0 / constrained_intra=0 / bframes=3 / b_pyramid=2 / b_adapt=1 / b_bias=0 / direct=1 / weightb=1 / open_gop=0 / weightp=1 / keyint=240 / keyint_min=24 / scenecut=40 / intra_refresh=0 / rc_lookahead=10 / rc=2pass / mbtree=1 / bitrate=1500 / ratetol=1.0 / qcomp=0.60 / qpmin=3 / qpmax=69 / qpstep=4 / cplxblur=20.0 / qblur=0.5 / ip_ratio=1.40 / aq=1:1.00
Language                                 : English
Default                                  : Yes
Forced                                   : Yes
Color primaries                          : BT.709
Transfer characteristics                 : BT.709
Matrix coefficients                      : BT.709

Audio
ID                                       : 2
Format                                   : AC-3
Format/Info                              : Audio Coding 3
Mode extension                           : CM (complete main)
Format settings, Endianness              : Big
Codec ID                                 : A_AC3
Duration                                 : 42mn 47s
Bit rate mode                            : Constant
Bit rate                                 : 128 Kbps
Channel(s)                               : 2 channels
Channel positions                        : Front: L R
Sampling rate                            : 48.0 KHz
Bit depth                                : 16 bits
Compression mode                         : Lossy
Stream size                              : 39.2 MiB (8%)
Language                                 : Spanish
Default                                  : Yes
Forced                                   : Yes
LISTA DE EPISODIOS:
Episodio 2x01: Bienvenidos a Briarcliff
UPLOADED:
Solo los usuarios registrados pueden ver los links de descarga. ¡Registrate ahora, ES GRATIS!

Episodio 2x02: truco o trato
UPLOADED:
Solo los usuarios registrados pueden ver los links de descarga. ¡Registrate ahora, ES GRATIS!

Episodio 2x03: Tampoco en Pascua
UPLOADED:
Solo los usuarios registrados pueden ver los links de descarga. ¡Registrate ahora, ES GRATIS!

Episodio 2x04: Yo soy Ana frank Parte 1
UPLOADED:
Solo los usuarios registrados pueden ver los links de descarga. ¡Registrate ahora, ES GRATIS!

Episodio 2x05: Yo soy Ana frank Parte 2
UPLOADED:
Solo los usuarios registrados pueden ver los links de descarga. ¡Registrate ahora, ES GRATIS!

Episodio 2x06: Los origenes de las monstruosidades
UPLOADED:
Solo los usuarios registrados pueden ver los links de descarga. ¡Registrate ahora, ES GRATIS!

Episodio 2x07: El ángel de la muerte
UPLOADED:
Solo los usuarios registrados pueden ver los links de descarga. ¡Registrate ahora, ES GRATIS!

Episodio 2x08: Noche profana
UPLOADED:
Solo los usuarios registrados pueden ver los links de descarga. ¡Registrate ahora, ES GRATIS!

Episodio 2x09: La percha
UPLOADED:
Solo los usuarios registrados pueden ver los links de descarga. ¡Registrate ahora, ES GRATIS!

Episodio 2x10: El juego de los nombres
UPLOADED:
Solo los usuarios registrados pueden ver los links de descarga. ¡Registrate ahora, ES GRATIS!

Episodio 2x11: Leche derramada
UPLOADED:
Solo los usuarios registrados pueden ver los links de descarga. ¡Registrate ahora, ES GRATIS!

Episodio 2x12: Continuo
UPLOADED:
Solo los usuarios registrados pueden ver los links de descarga. ¡Registrate ahora, ES GRATIS!

Episodio 2x13: Acaba la locura
UPLOADED:
Solo los usuarios registrados pueden ver los links de descarga. ¡Registrate ahora, ES GRATIS!