Resultados 1 al 11 de 11
Like Tree3Likes
  • 3 Post By Nukety

Modern Family T.3 [HDiTunes 720p] [DUAL] [700MB] [ MultiHost ]


Descargar Modern Family T.3 [HDiTunes 720p] [DUAL] [700MB] [ MultiHost ] Gratis 1 link Full Modern Family T.3 [HDiTunes 720p] [DUAL] [700MB] [ MultiHost ] por Mediafire con Crack, Serial, KeyGen Full Torrent

  1. Avatar de Nukety
    Nukety está desconectado Uploader
    Fecha de ingreso
    16 jun, 11
    Mensajes
    2,702

    Modern Family T.3 [HDiTunes 720p] [DUAL] [700MB] [ MultiHost ]

    Modern Family | Temporada 3 | Capitulos [05/24]



    Título: Modern Family
    Título Original: Modern Family
    Año: 2009
    País: USA
    Duración: 20 min.
    Género: Comedy
    Creador: Steven Levitan, Christopher Lloyd
    Productora: Emitida por la cadena ABC; 20th Century Fox Television / Picture Day Productions



    Sinopsis: Aclamada serie que narra la vida de Jay Pritchett (Ed O’Neill) y su familia, compuesta por su mujer (mucho más joven) Gloria Delgado (Sofia Vergara) y su hijo Manny, y al mismo tiempo muestra la vida de otras dos familias relacionadas. Siguiendo el estilo “Mockumentary” de The Office donde la ficción se narra como si de un documental se tratara, Modern Family satiriza el llamado "American Way of Life".

    [YOUTUBE]http://www.youtube.com/watch?v=a3dvKbmzWbI[/YOUTUBE]

    Solo los usuarios registrados pueden ver los links de descarga. ¡Registrate ahora, ES GRATIS! Solo los usuarios registrados pueden ver los links de descarga. ¡Registrate ahora, ES GRATIS! Solo los usuarios registrados pueden ver los links de descarga. ¡Registrate ahora, ES GRATIS!

    Temporada: 3
    Nº de Capitulos: 24
    Rip: HDiTunes
    Formato: 720p
    Contenedor: MKV
    Audio: Castellano e Inglés
    Tamaño: 700MB
    Rippeo:
    Media Info
    Código:
    Format                                   : Matroska
    Format version                           : Version 2
    File size                                : 717 MiB
    Duration                                 : 21mn 17s
    Overall bit rate                         : 4 708 Kbps
    Encoded date                             : UTC 2012-01-25 21:09:34
    Writing application                      : mkvmerge v5.2.0 ('I can't explain') built on Dec 18 2011 18:12:03
    Writing library                          : libebml v1.2.3 + libmatroska v1.3.0
    
    Video
    ID                                       : 1
    Format                                   : AVC
    Format/Info                              : Advanced Video Codec
    Format profile                           : High@L3.1
    Format settings, CABAC                   : No
    Format settings, ReFrames                : 2 frames
    Codec ID                                 : V_MPEG4/ISO/AVC
    Duration                                 : 21mn 17s
    Bit rate                                 : 4 038 Kbps
    Width                                    : 1 280 pixels
    Height                                   : 720 pixels
    Display aspect ratio                     : 16:9
    Frame rate                               : 23.976 fps
    Color space                              : YUV
    Chroma subsampling                       : 4:2:0
    Bit depth                                : 8 bits
    Scan type                                : Progressive
    Bits/(Pixel*Frame)                       : 0.183
    Stream size                              : 615 MiB (86%)
    Language                                 : Spanish
    Default                                  : Yes
    Forced                                   : Yes
    Color primaries                          : BT.709-5, BT.1361, IEC 61966-2-4, SMPTE RP177
    Transfer characteristics                 : BT.709-5, BT.1361
    Matrix coefficients                      : BT.709-5, BT.1361, IEC 61966-2-4 709, SMPTE RP177
    
    Audio #1
    ID                                       : 2
    Format                                   : AC-3
    Format/Info                              : Audio Coding 3
    Mode extension                           : CM (complete main)
    Codec ID                                 : A_AC3
    Duration                                 : 21mn 17s
    Bit rate mode                            : Constant
    Bit rate                                 : 192 Kbps
    Channel(s)                               : 2 channels
    Channel positions                        : Front: L R
    Sampling rate                            : 48.0 KHz
    Bit depth                                : 16 bits
    Compression mode                         : Lossy
    Stream size                              : 29.2 MiB (4%)
    Language                                 : Spanish
    Default                                  : Yes
    Forced                                   : Yes
    
    Audio #2
    ID                                       : 3
    Format                                   : AC-3
    Format/Info                              : Audio Coding 3
    Mode extension                           : CM (complete main)
    Codec ID                                 : A_AC3
    Duration                                 : 21mn 17s
    Bit rate mode                            : Constant
    Bit rate                                 : 384 Kbps
    Channel(s)                               : 6 channels
    Channel positions                        : Front: L C R, Side: L R, LFE
    Sampling rate                            : 48.0 KHz
    Bit depth                                : 16 bits
    Compression mode                         : Lossy
    Stream size                              : 58.5 MiB (8%)
    Title                                    : English
    Language                                 : English
    Default                                  : No
    Forced                                   : No
    
    Text
    ID                                       : 4
    Format                                   : UTF-8
    Codec ID                                 : S_TEXT/UTF8
    Codec ID/Info                            : UTF-8 Plain Text
    Language                                 : Spanish
    Default                                  : No
    Forced                                   : No
    Uploaded
    Contenido Oculto Este post contiene información oculta, debes contestar el post o hacer click en el botón 'Gracias' para ver el contenido.

    LetItBit
    Contenido Oculto Este post contiene información oculta, debes contestar el post o hacer click en el botón 'Gracias' para ver el contenido.

    DepositFiles
    Contenido Oculto Este post contiene información oculta, debes contestar el post o hacer click en el botón 'Gracias' para ver el contenido.

    Share-Online
    Contenido Oculto Este post contiene información oculta, debes contestar el post o hacer click en el botón 'Gracias' para ver el contenido.
    gwydionmv, bonfire46 and holdar like this.
    Todos mis aportes los subiré a Uploaded, si necesitas una cuenta premium en Up.to anímate y hazlo a través de mi link de referido Solo los usuarios registrados pueden ver los links de descarga. ¡Registrate ahora, ES GRATIS!
    La contraseña de los aportes es "Nukety"



  2. pascpayne está desconectado *Novato reciente*
    Fecha de ingreso
    17 dic, 08
    Mensajes
    24

    Re: Modern Family T.3 [HDiTunes 720p] [DUAL] [700MB] [ MultiHost ]

    magnifica serie gracias

  3. bonfire46 está desconectado *Novato reciente*
    Fecha de ingreso
    14 ene, 10
    Mensajes
    5

    Re: Modern Family T.3 [HDiTunes 720p] [DUAL] [700MB] [ MultiHost ]

    Muchas gracias... gran aporte

  4. bonfire46 está desconectado *Novato reciente*
    Fecha de ingreso
    14 ene, 10
    Mensajes
    5

    Re: Modern Family T.3 [HDiTunes 720p] [DUAL] [700MB] [ MultiHost ]

    Muchas gracias... gran aporte

  5. bostok14 está desconectado *Novato reciente*
    Fecha de ingreso
    11 jul, 12
    Mensajes
    7

    Re: Modern Family T.3 [HDiTunes 720p] [DUAL] [700MB] [ MultiHost ]

    GRacias!!!!!!!

  6. ivanatm está desconectado *Novato Avanzado*
    Fecha de ingreso
    29 sep, 11
    Mensajes
    65

    Re: Modern Family T.3 [HDiTunes 720p] [DUAL] [700MB] [ MultiHost ]

    muchas gracias!!

  7. carlospablo está desconectado *Novato Avanzado*
    Fecha de ingreso
    24 jul, 10
    Mensajes
    82

    Re: Modern Family T.3 [HDiTunes 720p] [DUAL] [700MB] [ MultiHost ]

    gracias por el aporte. A ver si hay suerte con los links.

  8. shaftpfunk está desconectado *Novato reciente*
    Fecha de ingreso
    06 feb, 09
    Mensajes
    2

    Re: Modern Family T.3 [HDiTunes 720p] [DUAL] [700MB] [ MultiHost ]

    gracias hace tiempo que la busco en dual!

  9. inmabetis está desconectado *Novato reciente*
    Fecha de ingreso
    19 nov, 12
    Mensajes
    3

    Re: Modern Family T.3 [HDiTunes 720p] [DUAL] [700MB] [ MultiHost ]

    Graciasssss!

  10. inmabetis está desconectado *Novato reciente*
    Fecha de ingreso
    19 nov, 12
    Mensajes
    3

    Re: Modern Family T.3 [HDiTunes 720p] [DUAL] [700MB] [ MultiHost ]

    Graciassss!

  11. gwydionmv está desconectado *Novato reciente*
    Fecha de ingreso
    09 jul, 09
    Mensajes
    2

    Re: Modern Family T.3 [HDiTunes 720p] [DUAL] [700MB] [ MultiHost ]

    graciaaaaaaaaas

Temas similares

  1. Fringe T.4 [HDiTunes 720p] [DUAL] [1.4GB] [ MultiHost ]
    Por Nukety en el foro Descargar Series de TV Gratis
    Respuestas: 10
    Último mensaje: 25/09/2013, 19:26
  2. Alphas T.1 [HDiTunes 720p] [DUAL] [1.4GB] [ MultiHost ]
    Por Nukety en el foro Descargar Series de TV Gratis
    Respuestas: 5
    Último mensaje: 01/01/2013, 08:52
  3. American Horror Story T.1 [HDiTunes] [DUAL] [700MB] [12/12] [ MultiHost]
    Por Nukety en el foro Descargar Series de TV Gratis
    Respuestas: 15
    Último mensaje: 07/12/2012, 17:00
  4. Anatomía de Grey T.8 [HDiTunes] [DUAL] [700MB] [ MultiHost ] 1 Link
    Por Nukety en el foro Descargar Series de TV Gratis
    Respuestas: 11
    Último mensaje: 27/11/2012, 12:50
  5. La Tapadera T.1 [HDiTunes 720p] [DUAL] [1.4GB] [ MultiHost ]
    Por Nukety en el foro Descargar Series de TV Gratis
    Respuestas: 2
    Último mensaje: 18/04/2012, 17:28

Etiquetas para este tema