Resultados 1 al 8 de 8

Alphas T.1 [HDRip] [DUAL] [600MB] [UL EB LE SF DF]


Descargar Alphas T.1 [HDRip] [DUAL] [600MB] [UL EB LE SF DF] Gratis 1 link Full Alphas T.1 [HDRip] [DUAL] [600MB] [UL EB LE SF DF] por Mediafire con Crack, Serial, KeyGen Full Torrent

  1. Avatar de Nukety
    Nukety está desconectado Uploader
    Fecha de ingreso
    16 jun, 11
    Mensajes
    2,702

    Alphas T.1 [HDRip] [DUAL] [600MB] [UL EB LE SF DF]


    Alphas | Temporada 01 | Capitulos [11/11]



    · · · · · · · · · · · · · · · : : | Ficha Técnica | : : · · · · · · · · · · · · · · ·

    Título: Alphas
    Título Original: Alphas
    Año: 2011
    País: USA
    Duración: 40 min.
    Género: SciFi | Thriller | Action
    Creador: Zak Penn, Michael Karnow
    Productora: BermanBraun


    · · · · · · · · · · · · · · · : : | Reparto | : : · · · · · · · · · · · · · · ·


    ★ Laura Mennell ★ Azita Ghanizada ★ David Strathairn ★ Malik Yoba ★ Ryan Cartwright ★ Warren Christie

    · · · · · · · · · · · · · · · : : | Sinopsis | : : · · · · · · · · · · · · · · ·

    "Alphas" basa su historia en un grupo de personas que posee habilidades mentales poco usuales, lo que, en propias palabras de los responsables, les dará la oportunidad de tomarse la justicia por su lado y resolver problemas que ni la CIA ni el Pentágono han podido resolver.


    YouTube http://www.youtube.com/v/SqzRx9WhgxY

    · · · · · · · · · · · · · · · : : | Media Info | : : · · · · · · · · · · · · · · ·

    Temporada: 01
    Nº de Capitulos: 11
    Rip: HDiTunes
    Formato: 480p
    Contenedor: AVI
    Audio: Castellano e Inglés
    Tamaño: 600 MB
    Rippeo: Saave
    Media Info
    Código:
    General
    Complete name                            : P:\Edit\Alphas - 1x04 [Nukety].avi
    Format                                   : AVI
    Format/Info                              : Audio Video Interleave
    File size                                : 629 MiB
    Duration                                 : 42mn 5s
    Overall bit rate                         : 2 088 Kbps
    Writing application                      : VirtualDubMod 1.5.10.1 (build 2366/release)
    Writing library                          : VirtualDubMod build 2366/release
    
    Video
    ID                                       : 0
    Format                                   : MPEG-4 Visual
    Format profile                           : Advanced Simple@L5
    Format settings, BVOP                    : 2
    Format settings, QPel                    : No
    Format settings, GMC                     : No warppoints
    Format settings, Matrix                  : Default (H.263)
    Codec ID                                 : XVID
    Codec ID/Hint                            : XviD
    Duration                                 : 42mn 5s
    Bit rate                                 : 1 689 Kbps
    Width                                    : 704 pixels
    Height                                   : 396 pixels
    Display aspect ratio                     : 16:9
    Frame rate                               : 25.000 fps
    Original frame rate                      : 23.976 fps
    Color space                              : YUV
    Chroma subsampling                       : 4:2:0
    Bit depth                                : 8 bits
    Scan type                                : Progressive
    Compression mode                         : Lossy
    Bits/(Pixel*Frame)                       : 0.242
    Stream size                              : 509 MiB (81%)
    Writing library                          : XviD 1.1.2 (UTC 2006-11-01)
    
    Audio #1
    ID                                       : 1
    Format                                   : MPEG Audio
    Format version                           : Version 1
    Format profile                           : Layer 3
    Mode                                     : Joint stereo
    Codec ID                                 : 55
    Codec ID/Hint                            : MP3
    Duration                                 : 42mn 5s
    Bit rate mode                            : Constant
    Bit rate                                 : 192 Kbps
    Channel(s)                               : 2 channels
    Sampling rate                            : 48.0 KHz
    Compression mode                         : Lossy
    Stream size                              : 57.8 MiB (9%)
    Alignment                                : Aligned on interleaves
    Interleave, duration                     : 40 ms (1.00 video frame)
    Interleave, preload duration             : 504 ms
    
    Audio #2
    ID                                       : 2
    Format                                   : MPEG Audio
    Format version                           : Version 1
    Format profile                           : Layer 3
    Mode                                     : Joint stereo
    Codec ID                                 : 55
    Codec ID/Hint                            : MP3
    Duration                                 : 42mn 5s
    Bit rate mode                            : Constant
    Bit rate                                 : 192 Kbps
    Channel(s)                               : 2 channels
    Sampling rate                            : 48.0 KHz
    Compression mode                         : Lossy
    Stream size                              : 57.8 MiB (9%)
    Alignment                                : Aligned on interleaves
    Interleave, duration                     : 40 ms (1.00 video frame)
    Interleave, preload duration             : 504 ms
    · · · · · · · · · · · · · · · : : | Links | : : · · · · · · · · · · · · · · ·

    Contenido Oculto Este post contiene información oculta, debes contestar el post o hacer click en el botón 'Gracias' para ver el contenido.

    · · · · · · · · · · · · · · · · · · · · · · · · · · · · · · · · · · · · · · · · · ·

    Visita mi Perfil para ver MI CATALOGO de Series | Temporadas en Defición Estándar y Alta Definición
    Última edición por Nukety; 01/04/2013 a las 20:06
    Todos mis aportes los subiré a Uploaded, si necesitas una cuenta premium en Up.to anímate y hazlo a través de mi link de referido Solo los usuarios registrados pueden ver los links de descarga. ¡Registrate ahora, ES GRATIS!
    La contraseña de los aportes es "Nukety"



  2. Avatar de Nukety
    Nukety está desconectado Uploader
    Fecha de ingreso
    16 jun, 11
    Mensajes
    2,702

    Re: Alphas T.1 [HDRip] [DUAL] [600MB] [UL EB LE SF DF]


    . : : ✚ Añadido Último Episodio : : .

    Fin de Temporada
    Todos mis aportes los subiré a Uploaded, si necesitas una cuenta premium en Up.to anímate y hazlo a través de mi link de referido Solo los usuarios registrados pueden ver los links de descarga. ¡Registrate ahora, ES GRATIS!
    La contraseña de los aportes es "Nukety"

  3. vceball está desconectado *User Pro*
    Fecha de ingreso
    01 feb, 10
    Mensajes
    656

    Re: Alphas T.1 [HDRip] [DUAL] [600MB] [UL EB LE SF DF]

    muchas gracias

  4. luranoro está desconectado *Novato reciente*
    Fecha de ingreso
    18 ago, 10
    Mensajes
    13

    Re: Alphas T.1 [HDRip] [DUAL] [600MB] [UL EB LE SF DF]

    Muchas gracias, vamos a ver qué tal es. Un saludo.

  5. littlebook está desconectado *User Pro*
    Fecha de ingreso
    08 ene, 12
    Mensajes
    616

    Re: Alphas T.1 [HDRip] [DUAL] [600MB] [UL EB LE SF DF]

    gracias por el aporte

  6. ravirus84 está desconectado *Novato reciente*
    Fecha de ingreso
    29 jun, 08
    Mensajes
    19

    Re: Alphas T.1 [HDRip] [DUAL] [600MB] [UL EB LE SF DF]

    Gracias capo

  7. Avatar de Nukety
    Nukety está desconectado Uploader
    Fecha de ingreso
    16 jun, 11
    Mensajes
    2,702

    Re: Alphas T.1 [HDRip] [DUAL] [600MB] [UL EB LE SF DF]


    . : : ✚ Añadido Nuevo Episodio : : .

    Capitulo: 10
    Todos mis aportes los subiré a Uploaded, si necesitas una cuenta premium en Up.to anímate y hazlo a través de mi link de referido Solo los usuarios registrados pueden ver los links de descarga. ¡Registrate ahora, ES GRATIS!
    La contraseña de los aportes es "Nukety"

  8. Avatar de Nukety
    Nukety está desconectado Uploader
    Fecha de ingreso
    16 jun, 11
    Mensajes
    2,702

    Re: Alphas T.1 [HDRip] [DUAL] [600MB] [UL EB LE SF DF]

    . : : ⇪ Aporte Completo : : .
    Todos mis aportes los subiré a Uploaded, si necesitas una cuenta premium en Up.to anímate y hazlo a través de mi link de referido Solo los usuarios registrados pueden ver los links de descarga. ¡Registrate ahora, ES GRATIS!
    La contraseña de los aportes es "Nukety"

Temas similares

  1. Castle T.1 [DVD+DVB] [DUAL] [600MB] [10/10] [UL LE SF DF EB]
    Por Nukety en el foro Descargar Series de TV Gratis
    Respuestas: 8
    Último mensaje: 28/07/2013, 03:07
  2. Undercovers T1 [HDTv+DVb][Dual][600Mb][WU]
    Por falonso88 en el foro Descargar Series de TV Gratis
    Respuestas: 1
    Último mensaje: 01/02/2013, 08:38
  3. Heroes T.1-2-3 [TVrip][Dual][600MB][59/59]
    Por shiriu83 en el foro Descargar Series de TV Gratis
    Respuestas: 5
    Último mensaje: 07/09/2012, 06:11
  4. House M.D. T.6 [DVD+DVB] [DUAL] [600MB] [22/22] | FS US FJ UL FSO |
    Por Nukety en el foro Descargar Series de TV Gratis
    Respuestas: 1
    Último mensaje: 19/08/2012, 02:15
  5. Quick (2011) HDRip 720p x264 600MB MKV
    Por MickyDude253 en el foro Peliculas en HD-DVD, BluRay, HDTV Gratis
    Respuestas: 0
    Último mensaje: 21/10/2011, 09:45

Etiquetas para este tema