Resultados 1 al 3 de 3
Like Tree1Likes
  • 1 Post By Nukety

Entre Fantasmas T.5 [HDiTunes 720p] [DUAL] [1.45GB] [22/22] | FS US FJ UL FSO |


Descargar Entre Fantasmas T.5 [HDiTunes 720p] [DUAL] [1.45GB] [22/22] | FS US FJ UL FSO | Gratis 1 link Full Entre Fantasmas T.5 [HDiTunes 720p] [DUAL] [1.45GB] [22/22] | FS US FJ UL FSO | por Mediafire con Crack, Serial, KeyGen Full Torrent

  1. Avatar de Nukety
    Nukety está desconectado Uploader
    Fecha de ingreso
    16 jun, 11
    Mensajes
    2,702

    Entre Fantasmas T.5 [HDiTunes 720p] [DUAL] [1.45GB] [22/22] | FS US FJ UL FSO |

    Entre Fantasmas | Temporada 5 | Capitulos [22/22]



    Título: Entre Fantasmas
    Título Original: Ghost Whisperer
    Año: 2005
    País: USA
    Duración: 40 min.
    Género: Fantasy | Drama
    Creador: John Gray
    Productora: Touchstone Television



    Sinopsis: Melinda Gordon (Jennifer Love Hewitt) es una joven recién casada que posee el don de comunicarse con los espíritus de las personas que han muerto, un talento heredado de su abuela. Los muertos buscan la habilidad de Melinda para poder tranmitir mensajes e información relevantes a los vivos. A pesar de su miedo, la compasión la lleva a ayudar a esas almas errantes a completar sus negocios inacabados con los vivos.

    [YOUTUBE]http://www.youtube.com/watch?v=Hp_rG5h4YUI[/YOUTUBE]

    Solo los usuarios registrados pueden ver los links de descarga. ¡Registrate ahora, ES GRATIS! Solo los usuarios registrados pueden ver los links de descarga. ¡Registrate ahora, ES GRATIS! Solo los usuarios registrados pueden ver los links de descarga. ¡Registrate ahora, ES GRATIS!

    Temporada: 5
    Nº de Capitulos: 22
    Rip: HDiTunes
    Formato: 720p
    Contenedor: MKV
    Audio: Castellano e Inglés
    Tamaño: 1.45GB
    Rippeo: eug
    Media Info
    Código:
    Format                           : Matroska
    Format version                   : Version 1
    File size                        : 1.46 GiB
    Duration                         : 41mn 42s
    Overall bit rate                 : 5 006 Kbps
    Encoded date                     : UTC 2010-05-11 12:53:56
    Writing application              : mkvmerge v2.4.1 ('Use Me') built on Dec  5 2008 15:43:32
    Writing library                  : libebml v0.7.7 + libmatroska v0.8.1
    
    Video
    ID                               : 1
    Format                           : AVC
    Format/Info                      : Advanced Video Codec
    Format profile                   : High@L3.1
    Format settings, CABAC           : No
    Format settings, ReFrames        : 2 frames
    Codec ID                         : V_MPEG4/ISO/AVC
    Duration                         : 41mn 42s
    Bit rate                         : 4 139 Kbps
    Width                            : 1 280 pixels
    Height                           : 720 pixels
    Display aspect ratio             : 16:9
    Frame rate                       : 23.976 fps
    Color space                      : YUV
    Chroma subsampling               : 4:2:0
    Bit depth                        : 8 bits
    Scan type                        : Progressive
    Bits/(Pixel*Frame)               : 0.187
    Stream size                      : 1.21 GiB (83%)
    Language                         : English
    Color primaries                  : BT.709-5, BT.1361, IEC 61966-2-4, SMPTE RP177
    Transfer characteristics         : BT.709-5, BT.1361
    Matrix coefficients              : BT.709-5, BT.1361, IEC 61966-2-4 709, SMPTE RP177
    
    Audio #1
    ID                               : 2
    Format                           : AC-3
    Format/Info                      : Audio Coding 3
    Mode extension                   : CM (complete main)
    Codec ID                         : A_AC3
    Duration                         : 41mn 42s
    Bit rate mode                    : Constant
    Bit rate                         : 384 Kbps
    Channel(s)                       : 6 channels
    Channel positions                : Front: L C R, Side: L R, LFE
    Sampling rate                    : 48.0 KHz
    Bit depth                        : 16 bits
    Compression mode                 : Lossy
    Stream size                      : 115 MiB (8%)
    Language                         : Spanish
    
    Audio #2
    ID                               : 3
    Format                           : AC-3
    Format/Info                      : Audio Coding 3
    Mode extension                   : CM (complete main)
    Codec ID                         : A_AC3
    Duration                         : 41mn 42s
    Bit rate mode                    : Constant
    Bit rate                         : 384 Kbps
    Channel(s)                       : 6 channels
    Channel positions                : Front: L C R, Side: L R, LFE
    Sampling rate                    : 48.0 KHz
    Bit depth                        : 16 bits
    Compression mode                 : Lossy
    Stream size                      : 115 MiB (8%)
    Language                         : English
    
    Text #1
    ID                               : 4
    Format                           : UTF-8
    Codec ID                         : S_TEXT/UTF8
    Codec ID/Info                    : UTF-8 Plain Text
    Title                            : planos
    Language                         : Spanish
    
    Text #2
    ID                               : 5
    Format                           : ASS
    Codec ID                         : S_TEXT/ASS
    Codec ID/Info                    : Advanced Sub Station Alpha
    Compression mode                 : Lossless
    Title                            : estilos
    Language                         : Spanish
    Links Temporada 5
    Contenido Oculto Este post contiene información oculta, debes contestar el post o hacer click en el botón 'Gracias' para ver el contenido.



    toja212 likes this.
    Todos mis aportes los subiré a Uploaded, si necesitas una cuenta premium en Up.to anímate y hazlo a través de mi link de referido Solo los usuarios registrados pueden ver los links de descarga. ¡Registrate ahora, ES GRATIS!
    La contraseña de los aportes es "Nukety"



  2. trifri está desconectado *User Avanzado*
    Fecha de ingreso
    22 jun, 11
    Mensajes
    195

    Re: Entre Fantasmas T.5 [HDiTunes 720p] [DUAL] [1.45GB] [22/22] | FS US FJ UL FSO |

    hey a ver que tal este ..jijijijgracais..
    thans

  3. alaricano está desconectado *Novato reciente*
    Fecha de ingreso
    25 feb, 13
    Mensajes
    4

    Re: Entre Fantasmas T.5 [HDiTunes 720p] [DUAL] [1.45GB] [22/22] | FS US FJ UL FSO |

    Gracias por el aporte::saludos

Temas similares

  1. V T.1 [HDiTunes 720p] [DUAL] [1.4GB] [12/12] | FS US FJ UL FSO FP |
    Por Nukety en el foro Descargar Series de TV Gratis
    Respuestas: 6
    Último mensaje: 24/08/2013, 14:26
  2. Roma T.1 [HDiTunes 720p] [DUAL] [2.2GB] [12/12] | US FJ UL FSO FP |
    Por Nukety en el foro Descargar Series de TV Gratis
    Respuestas: 9
    Último mensaje: 12/08/2013, 14:21
  3. Castle T.4 [HDiTunes 720p] [DUAL] [1.45GB] | FS US FJ UL FSO FP |
    Por Nukety en el foro Descargar Series de TV Gratis
    Respuestas: 8
    Último mensaje: 13/01/2013, 12:13
  4. V T.2 [HDiTunes 720p] [DUAL] [1.4GB] [10/10] | FS US FJ UL FSO FP |
    Por Nukety en el foro Descargar Series de TV Gratis
    Respuestas: 4
    Último mensaje: 27/12/2012, 11:54
  5. Rubicon T.1 [HDiTunes 720p] [DUAL] [1.4GB] [13/13] | FS US FJ UL FSO |
    Por Nukety en el foro Descargar Series de TV Gratis
    Respuestas: 3
    Último mensaje: 04/11/2012, 19:08

Etiquetas para este tema